Адское дитя / Hell Baby (Роберт Бен Гарант / Robert Ben Garant) [2013, США, ужасы, комедия, WEB-DLRip] VO

Ответить на тему
 
Автор Сообщение

user ®

Стаж: 7 лет 7 месяцев

Сообщений: 20008

Пост Пост: #1 от 11-Авг-2013 19:10

[Цитировать]

Адское дитя
Hell Baby
-
Страна: США
Жанр: ужасы, комедия
Год выпуска: 2013
Продолжительность: 01:34:00
Перевод: Одноголосый закадровый [den904], перевод [Антон Кедров]
Cубтитры: нет
Режиссер: Роберт Бен Гарант / Robert Ben Garant
В ролях: Роб Кордри, Лесли Бибб, Кигэн Майкл Ки, Рики Линдхоум, Роб Хюбел, Пол Шеер, Роберт Бен Гарант, Томас Леннон, Майкл Йен Блэк, Кумэйл Нанджиани
Описание: Молодая пара, со дня на день ждущая появления на свет своего первенца, въезжает в, мягко выражаясь, не самый новый и не самый крепкий в Новом Орлеане дом. Переезд ознаменовывается тем, что вскоре будущие родители уже вызывают к себе элитных ватиканских экзорцистов, надеясь, что они спасут их от младенца-демона.-Автор рипа: _Flash
-Качество видео: WEB-DLRip
Формат видео: AVI
Видео: XviD, 720x400, 23,976 кадра/сек, 2017 Кбит/сек, 0.292 Бит/Пикс
Аудио: AC3, 192 kb/s (2 ch)

Отчёт MediaInfo

Общее
Полное имя : D:\Hell.Baby.2013.HDRip.YTN.By_Flash.L1..avi
Формат : AVI
Формат/Информация : Audio Video Interleave
Размер файла : 1,46 Гбайт
Продолжительность : 1 ч. 34 м.
Общий поток : 2219 Кбит/сек
Программа кодирования : VirtualDubMod 1.5.10.3 | www.virtualdub-fr.org || (build 2550/release)
Библиотека кодирования : VirtualDubMod build 2550/release
Видео
Идентификатор : 0
Формат : MPEG-4 Visual
Профиль формата : Advanced Simple@L5
Параметр BVOP формата : 1
Параметр QPel формата : Нет
Параметр GMC формата : Без точки перехода
Параметр матрицы формата : Выборочная
Идентификатор кодека : XVID
Идентификатор кодека/Подсказка : XviD
Продолжительность : 1 ч. 34 м.
Битрейт : 2017 Кбит/сек
Ширина : 720 пикселей
Высота : 400 пикселей
Соотношение сторон : 16:9
Частота кадров : 23,976 кадра/сек
Цветовое пространство : YUV
Субдискретизация насыщенности : 4:2:0
Битовая глубина : 8 бит
Тип развёртки : Прогрессивная
Метод сжатия : С потерями
Бит/(Пиксели*Кадры) : 0.292
Размер потока : 1,32 Гбайт (91%)
Библиотека кодирования : XviD 65
Аудио
Идентификатор : 1
Формат : AC-3
Формат/Информация : Audio Coding 3
Расширение режима : CM (complete main)
Параметр Endianness формата : Big
Идентификатор кодека : 2000
Продолжительность : 1 ч. 34 м.
Вид битрейта : Постоянный
Битрейт : 192 Кбит/сек
Каналы : 2 канала
Расположение каналов : Front: L R
Частота : 48,0 КГц
Битовая глубина : 16 бит
Метод сжатия : С потерями
Размер потока : 129 Мбайт (9%)
Выравнивание : Разделение по промежуткам
Продолжительность промежутка : 42 мс. (1,00 видеокадр)
Время предзагрузки промежутка : 500 мс.

Скриншоты

Скачать

Скачать торрент!

Как скачивать? · Что такое торрент? · Рейтинг и ограничения

Сайт не распространяет и не хранит электронные версии произведений, а лишь предоставляет доступ к создаваемому пользователями каталогу ссылок на торрент-файлы, которые содержат только списки хеш-сумм

[Профиль] [ЛС]
Показать сообщения:    
Ответить на тему

Текущее время: Сегодня 20:12

Часовой пояс: GMT + 4



Вы не можете начинать темы
Вы не можете отвечать на сообщения
Вы не можете редактировать свои сообщения
Вы не можете удалять свои сообщения
Вы не можете голосовать в опросах
Вы не можете прикреплять файлы к сообщениям
Вы не можете скачивать файлы