Эпик / Epic (Крис Уэдж / Chris Wedge) [2013, мультфильм, фэнтези, приключения, семейный, HDRip] Dub

Ответить на тему
 
Автор Сообщение

user ®

Стаж: 13 лет

Сообщений: 15041

Пост Пост: #1 от 11-Авг-2013 16:00

[Цитировать]

Эпик / Epic«Исследуй мир за пределами своего воображения»- Страна: США
Жанр: мультфильм, фэнтези, приключения, семейный
Продолжительность: 01:42:29
Год выпуска: 2013
Перевод: Профессиональный (полное дублирование) |iTunes Russia|
Субтитры: Отсутствуют-Режиссёр: Крис Уэдж / Chris Wedge-Роли озвучивали: Джейсон Судейкис, Стивен Тайлер, Аманда Сайфред, Питбулл, Бейонсе Ноулз, Джош Хатчерсон, Джуда Фридлендер, Колин Фаррелл, Азиз Ансари, Блейк Андерсон-Роли дублировали: Юлия Савичева, Пётр Иващенко, Диомид Виноградов-Описание: После долгой разлуки юная Мэри Кэтрин возвращается в дом, где отшельником живет ее отец, безумный профессор Бомба. Однако тот совсем не обращает внимания на дочь и одержим лишь одной идеей — изучить скрытый от посторонних глаз таинственный лесной мир. Девушка отказывается верить, что под ногами человечества идет вечная борьба между армиями, воюющими на сторонах добра и зла. Чудесным образом Мэри Кэтрин уменьшается в размерах и знакомится с маленькими воинами. Теперь от нее зависит спасение не только волшебного лесного, но и реального человеческого мира…- -Релиз от Scarabey-Качество: HDRip
Формат: AVI
Видео: XviD build 73, 688x288 (2.39:1), 23.976 fps, ~879 kbps avg, 0.19 bit/pixel
Аудио: MP3, 48 kHz, 2 ch, ~128.00 kbps avg-

Подробные технические данные

ОбщееФормат : AVIФормат/Информация : Audio Video InterleaveРазмер файла : 745 МбайтПродолжительность : 1 ч. 42 м.Общий поток : 1016 Кбит/секПрограмма кодирования : VirtualDubMod 1.5.10.3 | www.virtualdub-fr.org || (build 2550/release)Библиотека кодирования : VirtualDubMod build 2550/release
ВидеоИдентификатор : 0Формат : MPEG-4 VisualПрофиль формата : Advanced Simple@L5Параметр BVOP формата : 1Параметр QPel формата : НетПараметр GMC формата : Без точки переходаПараметр матрицы формата : ВыборочнаяИдентификатор кодека : XVIDИдентификатор кодека/Подсказка : XviDПродолжительность : 1 ч. 42 м.Битрейт : 880 Кбит/секШирина : 688 пикселейВысота : 288 пикселейСоотношение сторон : 2,40:1Частота кадров : 23,976 кадра/секЦветовое пространство : YUVСубдискретизация насыщенности : 4:2:0Битовая глубина : 8 битТип развёртки : ПрогрессивнаяМетод сжатия : С потерямиБит/(Пиксели*Кадры) : 0.185Размер потока : 645 Мбайт (87%)Библиотека кодирования : XviD 73
АудиоИдентификатор : 1Формат : MPEG AudioВерсия формата : Version 1Профиль формата : Layer 3Идентификатор кодека : 55Идентификатор кодека/Подсказка : MP3Продолжительность : 1 ч. 41 м.Вид битрейта : ПостоянныйБитрейт : 128 Кбит/секКаналы : 2 каналаЧастота : 48,0 КГцМетод сжатия : С потерямиРазмер потока : 93,4 Мбайт (13%)Выравнивание : Соединение по промежуткамПродолжительность промежутка : 42 мс. (1,01 видеокадр)Время предзагрузки промежутка : 504 мс.Библиотека кодирования : LAME3.99rНастройки программы : -m s -V 4 -q 2 -lowpass 17 -b 128

Знаете ли вы, что...

• Первый фильм Blue Sky Studios, в котором главным героем является девушка. Для студии Twentieth Century Fox это первый после «Анастасии» (1997) кинотеатральный анимационный фильм с девушкой в качестве главной героини.
• Второй фильм Blue Sky Studios после фильма «Ледниковый период» (2002), где композитором не стал Джон Пауэлл.
Ошибки в мультфильме:
• Когда Мэри Кэтрин и ее отец воссоединяются в лесу, его глаза синие, в то время как в любых других сценах они зеленые.

Скриншоты

-
Скачать

Скачать торрент! Эпик / Epic (Крис Уэдж / Chris Wedge) [2013, мультфильм, фэнтези, приключения, семейный, HDRip] Dub

Как скачивать? · Что такое торрент? · Рейтинг и ограничения

Сайт не распространяет и не хранит электронные версии произведений, а лишь предоставляет доступ к создаваемому пользователями каталогу ссылок на торрент-файлы, которые содержат только списки хеш-сумм

[Профиль] [ЛС]
Показать сообщения:    
Ответить на тему

Текущее время: Сегодня 01:11

Часовой пояс: GMT + 4



Вы не можете начинать темы
Вы не можете отвечать на сообщения
Вы не можете редактировать свои сообщения
Вы не можете удалять свои сообщения
Вы не можете голосовать в опросах
Вы не можете прикреплять файлы к сообщениям
Вы не можете скачивать файлы