Забавная семейка / The Funny Family (Чу Ёнь Пин / Chu Yen-Ping) [1986, Тайвань, комедия, боевые искусства, DVDRip] VO (Виктор Береговых)

Ответить на тему
 
Автор Сообщение

user ®

Стаж: 13 лет

Сообщений: 15071

Пост Пост: #1 от 11-Авг-2013 16:00

[Цитировать]

Забавная семейка / The Funny Family
Страна: Тайвань
Жанр: комедия, боевые искусства
Год выпуска: 1986
Продолжительность: 01:31:36-Перевод: Виктор Береговых
Субтитры: китайские, английские (вшитые)-Режиссер: Чу Ёнь Пин / Chu Yen-Ping-В ролях: Лаам Сам Мэй, Ву Гва, Сыу Чу, Юкари Осима, Дэвид Тао, Чань Вай Лау-Описание: История начинается в небольшой деревушке. Сын живёт с отцом, а дочь с матерью, их родители постоянно враждуют и конфликтуют, доводя дело до драк. Молодые люди друг друга любят, но их родители этим не довольны и предлагают им отправиться в город, чтобы найти себе вторые половинки и не просто найти половинки, но и обогатиться деньжатами, а вместе с этим отыскать своих сбежавших родителей.Поиски оказываются четными, они лишь находят приключения на свою пятую точку и ввязываются в драку с местными бандюгами, после чего их сажают в обезьянник. По случайности их находят сбежавшие родители, но проблем становится ещё больше.Какие-то япошки гнобят магазин спорттоваров их родителей, вызывая их на какие-то дурацкие соревнования, в которых сами и побеждают и при этом делая из их родителей полных лохов...(Rainmaker)-Релиз групп - -Качество видео: DVDRip (DVD5)
Формат видео: AVI
Видео: XviD, 720x368 (1.96:1), 25 fps, 2078 kbps avg, 0.31 bit/pixel
Аудио : Русский MPEG layer 3, 192 kbps
-

Доп.инфо

Переводчик: Rainmaker
Рип: Public Enemy (((
Тайминг: Public Enemy (((
Постер: Public Enemy (((

MediaInfo

Format : AVI
Format/Info : Audio Video Interleave
File size : 1.46 GiB
Duration : 1h 31mn
Overall bit rate : 2 280 Kbps
Writing application : VirtualDubMod 1.5.10.2 (build 2540/release)
Writing library : VirtualDubMod build 2540/release
Video
ID : 0
Format : MPEG-4 Visual
Format profile : Advanced Simple@L5
Format settings, BVOP : 1
Format settings, QPel : No
Format settings, GMC : No warppoints
Format settings, Matrix : Custom
Codec ID : XVID
Codec ID/Hint : XviD
Duration : 1h 31mn
Bit rate : 2 078 Kbps
Width : 720 pixels
Height : 368 pixels
Display aspect ratio : 1.957
Frame rate : 25.000 fps
Color space : YUV
Chroma subsampling : 4:2:0
Bit depth : 8 bits
Scan type : Progressive
Compression mode : Lossy
Bits/(Pixel*Frame) : 0.314
Stream size : 1.33 GiB (91%)
Writing library : XviD 73
Audio
ID : 1
Format : MPEG Audio
Format version : Version 1
Format profile : Layer 3
Mode : Joint stereo
Codec ID : 55
Codec ID/Hint : MP3
Duration : 1h 31mn
Bit rate mode : Constant
Bit rate : 192 Kbps
Channel(s) : 2 channels
Sampling rate : 48.0 KHz
Compression mode : Lossy
Stream size : 126 MiB (8%)
Alignment : Aligned on interleaves
Interleave, duration : 40 ms (1.00 video frame)
Interleave, preload duration : 504 ms

Скриншот с названием

Скриншоты

Скачать

Скачать торрент! Забавная семейка / The Funny Family (Чу Ёнь Пин / Chu Yen-Ping) [1986, Тайвань, комедия, боевые искусства, DVDRip] VO (Виктор Береговых)

Как скачивать? · Что такое торрент? · Рейтинг и ограничения

Сайт не распространяет и не хранит электронные версии произведений, а лишь предоставляет доступ к создаваемому пользователями каталогу ссылок на торрент-файлы, которые содержат только списки хеш-сумм

[Профиль] [ЛС]
Показать сообщения:    
Ответить на тему

Текущее время: Сегодня 20:27

Часовой пояс: GMT + 4



Вы не можете начинать темы
Вы не можете отвечать на сообщения
Вы не можете редактировать свои сообщения
Вы не можете удалять свои сообщения
Вы не можете голосовать в опросах
Вы не можете прикреплять файлы к сообщениям
Вы не можете скачивать файлы