Лучший из меченосцев / The Swordsman of All Swordsmen / King of Swords / Yi dai jian wang (Джозеф Куо / Joseph Kuo Nan-Hong) [1968, Тайвань, боевые искусства, DVDRip] VO (Jet)

Ответить на тему
 
Автор Сообщение

user ®

Стаж: 13 лет

Сообщений: 15071

Пост Пост: #1 от 11-Авг-2013 16:00

[Цитировать]

Лучший из меченосцев / The Swordsman of All Swordsmen / King of Swords / Yi dai jian wang
Страна: Тайвань
Жанр: боевые искусства
Год выпуска: 1968
Продолжительность: 01:25:02
Перевод: Одноголосый закадровый Jet
Cубтитры: нет
Режиссер: Джозеф Куо / Joseph Kuo Nan-Hong
В ролях: Полли Куан, Тянь Пэн, Ян Мэнхуа, Тянь Е, Мяо Тянь, Сюэ Хань, Цзян Нань, Цао Цзянь, Гао Мин, Лю Чу, Кэ Юминь, Лу Чжи, Шан Чжигэ, Вэй Су, Ли Цзонань, Хун Хуалан
Описание: Молодой парень Тсай Ин Чи живёт собственной местью. Он ищет пятерых негодяев, убивших всю его семью 18 лет назад. За ним следует мастер Чёрный Дракон, который одержим мыслью стать номером один в боевом мире. Чёрный Дракон уверен, что он лучший меченосец, и только слава Тсай Ин Чи, мешает ему насладиться своим могуществом. Тсай Ин Чи отказывает ему в поединке, мотивируя это тем, что в первую очередь, он должен разделаться со своими врагами, и Чёрному Дракону приходится помогать Тсай Ин Чи, дабы тот не погиб раньше времени... (В. Береговых)
Благодарность: За исходник, перевод, озвучивание и описание благодарность выражается Виктору Береговых (Jet).
Доп. информация: Рип с ремастированного DVD.
Сэмпл: http://multi-up.com/892921
Качество видео: DVDRip
Формат видео: AVI
Видео: 720x336 (2.14:1), 23.976 fps, XviD build 50 ~2263 kbps avg, 0.39 bit/pixel
Аудио: 48 kHz, AC3 Dolby Digital, 2/0 (L,R) ch, ~192 kbps

MediaInfo

Format : AVI
Format/Info : Audio Video Interleave
File size : 1,46 Гбайт
Duration : 1 ч. 25 м.
Overall bit rate : 2465 Кбит/сек
Writing application : VirtualDubMod 1.5.10.3 | www.virtualdub-fr.org || (build 2550/release)
Writing library : VirtualDubMod build 2550/release
Видео
ID : 0
Format : MPEG-4 Visual
Format profile : Advanced Simple@L5
Format settings, BVOP : 2
Format settings, QPel : Нет
Format settings, GMC : Без точки перехода
Format settings, Matrix : Default (MPEG)
Codec ID : XVID
Codec ID/Hint : XviD
Duration : 1 ч. 25 м.
Bit rate : 2264 Кбит/сек
Width : 720 пикселей
Height : 336 пикселей
Display aspect ratio : 2,143
Frame rate : 23,976 кадра/сек
Color space : YUV
Chroma subsampling : 4:2:0
Bit depth : 8 бит
Scan type : Прогрессивная
Compression mode : С потерями
Bits/(Pixel*Frame) : 0.390
Stream size : 1,34 Гбайт (92%)
Writing library : XviD 1.2.1 (UTC 2008-12-04)
Аудио
ID : 1
Format : AC-3
Format/Info : Audio Coding 3
Mode extension : CM (complete main)
Format settings, Endianness : Big
Codec ID : 2000
Duration : 1 ч. 25 м.
Bit rate mode : Постоянный
Bit rate : 192 Кбит/сек
Channel(s) : 2 канала
Channel positions : Front: L R
Sampling rate : 48,0 КГц
Bit depth : 16 бит
Compression mode : С потерями
Stream size : 117 Мбайт (8%)
Alignment : Разделение по промежуткам
Interleave, duration : 42 мс. (1,00 видеокадр)
Interleave, preload duration : 500 мс.

Скриншот c названием фильма

Скриншоты

Скачать

Скачать торрент! Лучший из меченосцев / The Swordsman of All Swordsmen / King of Swords / Yi dai jian wang (Джозеф Куо / Joseph Kuo Nan-Hong) [1968, Тайвань, боевые искусства, DVDRip] VO (Jet)

Как скачивать? · Что такое торрент? · Рейтинг и ограничения

Сайт не распространяет и не хранит электронные версии произведений, а лишь предоставляет доступ к создаваемому пользователями каталогу ссылок на торрент-файлы, которые содержат только списки хеш-сумм

[Профиль] [ЛС]
Показать сообщения:    
Ответить на тему

Текущее время: Сегодня 21:16

Часовой пояс: GMT + 4



Вы не можете начинать темы
Вы не можете отвечать на сообщения
Вы не можете редактировать свои сообщения
Вы не можете удалять свои сообщения
Вы не можете голосовать в опросах
Вы не можете прикреплять файлы к сообщениям
Вы не можете скачивать файлы