Бадшах / Baadshah (Срину Вайтла / Srinu Vaitla) [2013, Индия, боевик, мелодрама, BDRip-AVC] Sub Rus

Ответить на тему
 
Автор Сообщение

user ®

Стаж: 12 лет

Сообщений: 15092

Пост Пост: #1 от 11-Авг-2013 16:00

[Цитировать]

Бадшах / Baadshah
Страна: Индия
Жанр: боевик, мелодрама
Год выпуска: 2013
Продолжительность: 02:44:37
Перевод: Субтитры
Cубтитры: русские
Оригинальная аудиодорожка: телугу
Перевод субтитров: witaa
Режиссер: Срину Вайтла / Srinu Vaitla
В ролях: НТР-мл., Каджал Аггарвал, Нассер, Навдип, Брахманандам, Келли Джорджи, М.С.Нараяна, Мукеш Риши
Описание: Иногда для того, чтобы наказать зло, приходится самому надеть маску зла и, ворвавшись ураганом в преступный мир, утопить в крови его обитателей. Рама Рао (НТР-мл.) был счастлив, пока от взрыва бомбы, подложенной террористами, не погиб дорогой ему человек. Это перевернуло привычный уклад его жизни. Он поставил перед собой цель: месть. А для достижения благородной цели, как известно, все средства хороши. Например, можно влюбить в себя красавицу, которая имеет прямое отношение к одной из значимых фигур преступного мира (правда, героиня об этом еще пока не знает – но ей же лучше, спится спокойнее). Можно столкнуть лбами влиятельных мафиози, пусть они передерутся. Можно примерить любой образ и войти в любое доверие. Главное – результат.
Сэмпл: http://multi-up.com/892768
Дополнительно: Настоятельно прошу не выкладывать субтитры на других ресурсах
Качество видео: BDRip (исходник: BAADSHAH.Blu-Ray.x264.720p.mHD (DDS 5.1 Audio + English Subs)[ XBOX, PS3, HDTV Compatible])
Формат видео: MP4
Видео: x264, 1280х544, 2.35:1, 24.000 fps, 1 948 Kbps
Аудио: AC-3, 48.0 kHz, 224 Kbps, 6 channels, Original
Формат субтитров: softsub (SRT)

MediaInfo

General
Complete name : Badshah.2013.BDRip.x264
Format : MPEG-4
Format profile : Base Media
Codec ID : isom
File size : 2.50 GiB
Duration : 2h 44mn
Overall bit rate : 2 175 Kbps
Encoded date : UTC 2013-07-19 07:12:11
Tagged date : UTC 2013-07-19 07:12:11
Video #1
ID : 1
Format : AVC
Format/Info : Advanced Video Codec
Format profile : High@L4.1
Format settings, CABAC : Yes
Format settings, ReFrames : 4 frames
Codec ID : avc1
Codec ID/Info : Advanced Video Coding
Duration : 2h 44mn
Bit rate : 1 948 Kbps
Maximum bit rate : 12.7 Mbps
Width : 1 280 pixels
Height : 544 pixels
Display aspect ratio : 2.35:1
Frame rate mode : Constant
Frame rate : 24.000 fps
Color space : YUV
Chroma subsampling : 4:2:0
Bit depth : 8 bits
Scan type : Progressive
Bits/(Pixel*Frame) : 0.117
Stream size : 2.24 GiB (90%)
Title : PuLi - Baadshah - mHD - DDR
Writing library : x264 core 120 r2164 da19765
Encoding settings : cabac=1 / ref=3 / deblock=1:-1:-1 / analyse=0x3:0x113 / me=umh / subme=6 / psy=1 / psy_rd=1.00:0.15 / mixed_ref=1 / me_range=10 / chroma_me=1 / trellis=0 / 8x8dct=1 / cqm=0 / deadzone=21,11 / fast_pskip=1 / chroma_qp_offset=-2 / threads=12 / sliced_threads=0 / nr=0 / decimate=1 / interlaced=0 / bluray_compat=0 / constrained_intra=0 / bframes=3 / b_pyramid=2 / b_adapt=2 / b_bias=0 / direct=1 / weightb=1 / open_gop=0 / weightp=2 / keyint=230 / keyint_min=23 / scenecut=40 / intra_refresh=0 / rc_lookahead=40 / rc=2pass / mbtree=1 / bitrate=1948 / ratetol=1.0 / qcomp=0.60 / qpmin=10 / qpmax=51 / qpstep=4 / cplxblur=20.0 / qblur=0.5 / vbv_maxrate=24000 / vbv_bufsize=24000 / nal_hrd=none / ip_ratio=1.40 / aq=1:1.00
Encoded date : UTC 2013-07-18 17:58:47
Tagged date : UTC 2013-07-19 07:15:12
Color primaries : BT.470-6 System B, BT.470-6 System G, BT.601-6 625, BT.1358 625, BT.1700 625 PAL, BT.1700 625 SECAM
Transfer characteristics : BT.470-6 System B, BT.470-6 System G
Matrix coefficients : BT.470-6 System B, BT.470-6 System G, BT.601-6 625, BT.1358 625, BT.1700 625 PAL, BT.1700 625 SECAM, IEC 61966-2-4 601
Audio #2
ID : 2
Format : AC-3
Format/Info : Audio Coding 3
Mode extension : CM (complete main)
Codec ID : ac-3
Duration : 2h 44mn
Bit rate mode : Constant
Bit rate : 224 Kbps
Channel(s) : 6 channels
Channel positions : Front: L C R, Side: L R, LFE
Sampling rate : 48.0 KHz
Bit depth : 16 bits
Compression mode : Lossy
Stream size : 264 MiB (10%)
Title : PuLi - AC3 5.1 Ch - DDR
Encoded date : UTC 2013-07-19 07:14:23
Tagged date : UTC 2013-07-19 07:15:12

Скриншот c названием фильма

Скриншоты






Скачать

Скачать торрент! Бадшах / Baadshah (Срину Вайтла / Srinu Vaitla) [2013, Индия, боевик, мелодрама, BDRip-AVC] Sub Rus

Как скачивать? · Что такое торрент? · Рейтинг и ограничения

Сайт не распространяет и не хранит электронные версии произведений, а лишь предоставляет доступ к создаваемому пользователями каталогу ссылок на торрент-файлы, которые содержат только списки хеш-сумм

[Профиль] [ЛС]
Показать сообщения:    
Ответить на тему

Текущее время: Сегодня 19:08

Часовой пояс: GMT + 4



Вы не можете начинать темы
Вы не можете отвечать на сообщения
Вы не можете редактировать свои сообщения
Вы не можете удалять свои сообщения
Вы не можете голосовать в опросах
Вы не можете прикреплять файлы к сообщениям
Вы не можете скачивать файлы