Соммерсби / Sommersby (Джон Эмиел / Jon Amiel) [1993, США, Франция, Драма, мелодрама, детектив, BDRip 720p] MVO (R5) + DVO (НТВ+) + AVO (Михалев) + AVO (Горчаков) + Subs (Rus, Eng) + Original Eng

Ответить на тему
 
Автор Сообщение

user ®

Стаж: 7 лет 7 месяцев

Сообщений: 20008

Пост Пост: #1 от 11-Авг-2013 10:20

[Цитировать]

Соммерсби / Sommersby
Страна: США, Франция
Жанр: Драма, мелодрама, детектив
Год выпуска: 1993
Продолжительность: 01:53:27
Перевод: Профессиональный (многоголосый закадровый) R5
Перевод 2: Профессиональный (двухголосый закадровый) НТВ+
Перевод 3: Авторский (одноголосый закадровый) А.Михалев
Перевод 4: Авторский (одноголосый закадровый) В.Горчаков
Cубтитры: Русские (UTF-8), английские (UTF-8)
Оригинальная аудиодорожка: английский
Режиссер: Джон Эмиел / Jon Amiel
В ролях: Ричард Гир, Джоди Фостер, Билл Пуллман, Джеймс Эрл Джонс, Лэнни Флаэрти, Уильям Уиндом, Уенделл Веллман, Бретт Келли, Клариса Тейлор, Фрэнки Фэйзон
Описание: После окончания Гражданской войны Джек Соммерсби, которого все считали погибшим, возвращается в родной городок. Все давно перестали ждать его и потому чрезвычайно рады появлению ветерана в родных краях. И лишь жена, которая всегда верила, что её муж вернётся, относится к Джеку странно — будто она ему не рада. Находятся и другие противники Соммерсби. А Джек постепенно налаживает хозяйство, помогает жителям городка решить проблему нищенского существования, восстанавливает отношения с женой. Однако, чем больше Джек старается жить обычной жизнью, тем больше у его жены появляется подозрений: действительно ли этот человек её муж?
Сэмпл: http://multi-up.com/892812
Релиз:
Тип релиза: BDRip 720p
Контейнер: MKV
Видео: MPEG-4 AVC, 4300 Кбит/с, 1280x544, 23.976 кадр/с
Аудио: Russian, 384 Кбит/сек, 48.0 КГц, 6 каналов, 16 бит, AC3 / Профессиональный многоголосый (R5)
Аудио 2: Russian, 448 Кбит/сек, 48.0 КГц, 6 каналов, 16 бит, AC3 / Профессиональный двухголосый (НТВ+)
Аудио 3: Russian, 1509 Кбит/сек, 48.0 КГц, 6 каналов, 24 бит, DTS / Авторский одноголосый (А.Михалев)
Аудио 4: Russian, 192 Кбит/сек, 48.0 КГц, 2 каналов, 16 бит, AC3 / Авторский одноголосый (В.Горчаков)
Аудио 5: Russian, 1509 Кбит/сек, 48.0 КГц, 6 каналов, 16 бит, DTS / Авторский одноголосый (А.Попов)
Аудио 6: English, 1509 Кбит/сек, 48.0 КГц, 6 каналов, 24 бит, DTS

MediaInfo

Общее
Уникальный идентификатор : 203330736712553951521334569425934657438 (0x98F813505B6CC52F872CD38E816EA79E)
Полное имя : C:\фильмы\Sommersbi.1993.x264.BDRip.(720p).mkv
Формат : Matroska
Версия формата : Version 4 / Version 2
Размер файла : 7,81 Гбайт
Продолжительность : 1 ч. 53 м.
Общий поток : 9851 Кбит/сек
Название фильма : = MediaClub = rip by Painter
Дата кодирования : UTC 2013-08-10 17:03:13
Программа кодирования : mkvmerge v6.1.0 ('Old Devil') built on Mar 2 2013 14:32:37
Библиотека кодирования : libebml v1.3.0 + libmatroska v1.4.0
Видео
Идентификатор : 1
Формат : AVC
Формат/Информация : Advanced Video Codec
Профиль формата : High@L4.1
Параметр CABAC формата : Да
Параметр ReFrames формата : 9 кадров
Идентификатор кодека : V_MPEG4/ISO/AVC
Продолжительность : 1 ч. 53 м.
Битрейт : 4300 Кбит/сек
Ширина : 1280 пикселей
Высота : 544 пикселя
Соотношение сторон : 2,35:1
Режим частоты кадров : Постоянный
Частота кадров : 23,976 кадра/сек
Цветовое пространство : YUV
Субдискретизация насыщенности : 4:2:0
Битовая глубина : 8 бит
Тип развёртки : Прогрессивная
Бит/(Пиксели*Кадры) : 0.258
Размер потока : 3,25 Гбайт (42%)
Библиотека кодирования : x264 core 130 r2273 b3065e6
Настройки программы : cabac=1 / ref=9 / deblock=1:-3:-3 / analyse=0x3:0x133 / me=umh / subme=11 / psy=1 / psy_rd=1.00:0.20 / mixed_ref=1 / me_range=32 / chroma_me=1 / trellis=2 / 8x8dct=1 / cqm=0 / deadzone=21,11 / fast_pskip=0 / chroma_qp_offset=-3 / threads=6 / lookahead_threads=1 / sliced_threads=0 / nr=0 / decimate=0 / interlaced=0 / bluray_compat=0 / constrained_intra=0 / bframes=8 / b_pyramid=2 / b_adapt=2 / b_bias=0 / direct=3 / weightb=1 / open_gop=0 / weightp=2 / keyint=240 / keyint_min=23 / scenecut=40 / intra_refresh=0 / rc=2pass / mbtree=0 / bitrate=4300 / ratetol=1.0 / qcomp=0.60 / qpmin=0 / qpmax=69 / qpstep=4 / cplxblur=20.0 / qblur=0.5 / ip_ratio=1.40 / pb_ratio=1.30 / aq=1:1.00
Язык : English
Default : Да
Forced : Нет
Аудио #1
Идентификатор : 2
Формат : AC-3
Формат/Информация : Audio Coding 3
Расширение режима : CM (complete main)
Параметр Endianness формата : Big
Идентификатор кодека : A_AC3
Продолжительность : 1 ч. 53 м.
Вид битрейта : Постоянный
Битрейт : 384 Кбит/сек
Каналы : 6 каналов
Расположение каналов : Front: L C R, Side: L R, LFE
Частота : 48,0 КГц
Битовая глубина : 16 бит
Метод сжатия : С потерями
Размер потока : 312 Мбайт (4%)
Заголовок : Многоголосый (R5)
Язык : Russian
Default : Да
Forced : Нет
Аудио #2
Идентификатор : 3
Формат : AC-3
Формат/Информация : Audio Coding 3
Расширение режима : CM (complete main)
Параметр Endianness формата : Big
Идентификатор кодека : A_AC3
Продолжительность : 1 ч. 53 м.
Вид битрейта : Постоянный
Битрейт : 448 Кбит/сек
Каналы : 6 каналов
Расположение каналов : Front: L C R, Side: L R, LFE
Частота : 48,0 КГц
Битовая глубина : 16 бит
Метод сжатия : С потерями
Размер потока : 364 Мбайт (5%)
Заголовок : Двухголосый (НТВ+)
Язык : Russian
Default : Нет
Forced : Нет
Аудио #3
Идентификатор : 4
Формат : DTS
Формат/Информация : Digital Theater Systems
Режим : 16
Параметр Endianness формата : Big
Идентификатор кодека : A_DTS
Продолжительность : 1 ч. 53 м.
Вид битрейта : Постоянный
Битрейт : 1509 Кбит/сек
Каналы : 6 каналов
Расположение каналов : Front: L C R, Side: L R, LFE
Частота : 48,0 КГц
Битовая глубина : 24 бит
Метод сжатия : С потерями
Размер потока : 1,20 Гбайт (15%)
Заголовок : Михалев
Язык : Russian
Default : Нет
Forced : Нет
Аудио #4
Идентификатор : 5
Формат : AC-3
Формат/Информация : Audio Coding 3
Расширение режима : CM (complete main)
Параметр Endianness формата : Big
Идентификатор кодека : A_AC3
Продолжительность : 1 ч. 53 м.
Вид битрейта : Постоянный
Битрейт : 192 Кбит/сек
Каналы : 2 канала
Расположение каналов : Front: L R
Частота : 48,0 КГц
Битовая глубина : 16 бит
Метод сжатия : С потерями
Размер потока : 156 Мбайт (2%)
Заголовок : Горчаков
Язык : Russian
Default : Нет
Forced : Нет
Аудио #5
Идентификатор : 6
Формат : DTS
Формат/Информация : Digital Theater Systems
Режим : 16
Параметр Endianness формата : Big
Идентификатор кодека : A_DTS
Продолжительность : 1 ч. 53 м.
Вид битрейта : Постоянный
Битрейт : 1509 Кбит/сек
Каналы : 6 каналов
Расположение каналов : Front: L C R, Side: L R, LFE
Частота : 48,0 КГц
Битовая глубина : 16 бит
Метод сжатия : С потерями
Размер потока : 1,20 Гбайт (15%)
Заголовок : Попов
Язык : Russian
Default : Нет
Forced : Нет
Аудио #6
Идентификатор : 7
Формат : DTS
Формат/Информация : Digital Theater Systems
Режим : 16
Параметр Endianness формата : Big
Идентификатор кодека : A_DTS
Продолжительность : 1 ч. 53 м.
Вид битрейта : Постоянный
Битрейт : 1509 Кбит/сек
Каналы : 6 каналов
Расположение каналов : Front: L C R, Side: L R, LFE
Частота : 48,0 КГц
Битовая глубина : 24 бит
Метод сжатия : С потерями
Размер потока : 1,20 Гбайт (15%)
Язык : English
Default : Нет
Forced : Нет
Текст #1
Идентификатор : 8
Формат : UTF-8
Идентификатор кодека : S_TEXT/UTF8
Идентификатор кодека/Информация : UTF-8 Plain Text
Язык : Russian
Default : Нет
Forced : Нет
Текст #2
Идентификатор : 9
Формат : UTF-8
Идентификатор кодека : S_TEXT/UTF8
Идентификатор кодека/Информация : UTF-8 Plain Text
Язык : English
Default : Нет
Forced : Нет
Меню
00:00:00.000 : :Chapter 01
00:11:05.706 : :Chapter 02
00:21:05.806 : :Chapter 03
00:30:50.139 : :Chapter 04
00:40:20.668 : :Chapter 05
00:50:34.448 : :Chapter 06
01:01:32.605 : :Chapter 07
01:09:54.940 : :Chapter 08
01:19:34.770 : :Chapter 09
01:30:44.480 : :Chapter 10
01:39:09.360 : :Chapter 11
01:49:51.918 : :Chapter 12
01:53:24.547 : :Chapter 13

Скриншоты

Скачать

Скачать торрент!

Как скачивать? · Что такое торрент? · Рейтинг и ограничения

Сайт не распространяет и не хранит электронные версии произведений, а лишь предоставляет доступ к создаваемому пользователями каталогу ссылок на торрент-файлы, которые содержат только списки хеш-сумм

[Профиль] [ЛС]
Показать сообщения:    
Ответить на тему

Текущее время: Сегодня 06:02

Часовой пояс: GMT + 4



Вы не можете начинать темы
Вы не можете отвечать на сообщения
Вы не можете редактировать свои сообщения
Вы не можете удалять свои сообщения
Вы не можете голосовать в опросах
Вы не можете прикреплять файлы к сообщениям
Вы не можете скачивать файлы