Жениться на дочери миллионера / Andaz Apna Apna (Раджкумар Сантоши / Rajkumar Santoshi) [1994, Индия, Комедия, DVDRip] MVO (Zee TV)

Ответить на тему
 
Автор Сообщение

user ®

Стаж: 12 лет

Сообщений: 15124

Пост Пост: #1 от 11-Авг-2013 07:10

[Цитировать]

Жениться на дочери миллионера / Andaz Apna Apna
Страна: Индия
Жанр: Комедия
Год выпуска: 1994
Продолжительность: 02:41:11
Перевод: Профессиональный (многоголосый закадровый) Zee TV
Cубтитры: нет
Режиссер: Раджкумар Сантоши / Rajkumar Santoshi
В ролях: Аамир Кхан, Салман Кхан, Равина Тандон, Каришма Капур, Пареш Равал, Мехмуд, Девен Верма, Джагдип
Описание: Два простачка Амар и Прем, прочитав в прессе статью о приезде в Индию потенциальной невесты, да ещё к тому же и миллионерши, решили попытать себя в роли женихов. Оба, конечно же, и не подозревают, что в страну приехали две девушки, которые решили ради шутки поменяться местами, и одна из них стала Равиной — дочерью миллионера, а вторая Каришмой, её подругой. Всё бы было хорошо, пока этот обман не всплыл наружу и молодые люди не узнали, кого же они любят на самом деле…
Доп. информация: Релиз
Синхронизация аудио, работа с DVDRip: Василисса (Спасибо!)
Сэмпл: http://multi-up.com/892782
Качество видео: DVDRip
Формат видео: AVI
Видео: XviD build 50, 656x336 (1.95:1), 23.976 fps, 1091 kbps avg
Аудио: AC3 Dolby Digital, 48 kHz, 2/0 (L,R) ch, 192.00 kbps avg

MediaInfo

General
Complete name : D:\Zhenitsya.Na.Docheri.Millionera.1994.DVDRip.XviD.BwTorrents.avi
Format : AVI
Format/Info : Audio Video Interleave
File size : 1.46 GiB
Duration : 2h 41mn
Overall bit rate : 1 293 Kbps
Writing application : VirtualDubMod 1.5.10.2 (build 2540/release)
Writing library : VirtualDubMod build 2540/release
Video
ID : 0
Format : MPEG-4 Visual
Format profile : AdvancedSimple@L5
Format settings, BVOP : Yes
Format settings, QPel : No
Format settings, GMC : No warppoints
Format settings, Matrix : Custom
Codec ID : XVID
Codec ID/Hint : XviD
Duration : 2h 41mn
Bit rate : 1 092 Kbps
Width : 656 pixels
Height : 336 pixels
Display aspect ratio : 1.952
Frame rate : 23.976 fps
Resolution : 24 bits
Colorimetry : 4:2:0
Scan type : Progressive
Bits/(Pixel*Frame) : 0.207
Stream size : 1.23 GiB (84%)
Writing library : XviD 1.2.1 (UTC 2008-12-04)
Audio
ID : 1
Format : AC-3
Format/Info : Audio Coding 3
Codec ID : 2000
Duration : 2h 41mn
Bit rate mode : Constant
Bit rate : 192 Kbps
Channel(s) : 2 channels
Channel positions : L R
Sampling rate : 48.0 KHz
Stream size : 221 MiB (15%)
Alignment : Split accross interleaves
Interleave, duration : 42 ms (1.00 video frame)
Interleave, preload duration : 500 ms

Скриншоты

Скачать

Скачать торрент! Жениться на дочери миллионера / Andaz Apna Apna (Раджкумар Сантоши / Rajkumar Santoshi) [1994, Индия, Комедия, DVDRip] MVO (Zee TV)

Как скачивать? · Что такое торрент? · Рейтинг и ограничения

Сайт не распространяет и не хранит электронные версии произведений, а лишь предоставляет доступ к создаваемому пользователями каталогу ссылок на торрент-файлы, которые содержат только списки хеш-сумм

[Профиль] [ЛС]
Показать сообщения:    
Ответить на тему

Текущее время: Сегодня 20:16

Часовой пояс: GMT + 4



Вы не можете начинать темы
Вы не можете отвечать на сообщения
Вы не можете редактировать свои сообщения
Вы не можете удалять свои сообщения
Вы не можете голосовать в опросах
Вы не можете прикреплять файлы к сообщениям
Вы не можете скачивать файлы