Экзамен для двоих / Admission (Пол Вайц / Paul Weitz) [2013, Драма, мелодрама, комедия, BDRip-AVC] Dub + Original (Eng) + Sub (eng)

Ответить на тему
 
Автор Сообщение

user ®

Стаж: 7 лет 7 месяцев

Сообщений: 20008

Пост Пост: #1 от 11-Авг-2013 07:10

[Цитировать]

Экзамен для двоих / Admission
Страна: США / Depth of Field
Жанр: Драма, мелодрама, комедия
Год выпуска: 2013
Продолжительность: 01:47:07-Перевод: Профессиональный (дублированный) лицензия
Cубтитры: английские
Формат субтитров: softsub (SRT)
Оригинальная аудиодорожка: английский-Режиссер: Пол Вайц / Paul Weitz
В ролях: Тина Фей, Пол Радд, Майкл Шин, Уоллес Шоун, Лили Томлин, Энн Харада, Бен Левин, Дэн Леви, Мэгги Кинэн-Болджер, Глория Рубен
Описание: Полли Нельсон работает в приемной комиссии престижного университета, она — вершитель судеб многих подростков. Но как устроить собственную судьбу? Появление идеального мужчины вовсе не обещает мир и покой, наоборот, приносит в её жизнь множество дурацких ситуаций и не всегда приятных сюрпризов. А тут ещё объявляется сын, которого Полли считала потерянным, и он, увы, далеко не отличник. Что спасать в первую очередь, карьеру или личную жизнь?- -Релиз от:
Автор рипа: potroks-Качество видео: BDRip-AVC [Admission.2013.1080p.BluRay.AVC.DTS-HD.MA.5.1-PublicHD]
Формат видео: MKV
Видео: х.264, 1044x436 (2.40:1), 23,976 fps, 2023 Кbps, 0.185 bit/pixel
Аудио#1: 48 kHz, AC3 Dolby Digital, 3/2 (L,C,R,l,r) + LFE ch, 448.00 kbps | RUS
Аудио#2: 48 kHz, AC3 Dolby Digital, 3/2 (L,C,R,l,r) + LFE ch, 448.00 kbps | ENG

MediaInfo

Общее
Уникальный идентификатор : 227086642388657410539475887176270258754 (0xAAD74BE473FBF9FEB7B93C2FDB8CA242)
Полное имя : Ekzamen.Dlja.Dvoih.2013.L2.BDRip.x264.potroks.mkv
Формат : Matroska
Версия формата : Version 4 / Version 2
Размер файла : 2,14 Гбайт
Продолжительность : 1 ч. 47 м.
Общий поток : 2855 Кбит/сек
Дата кодирования : UTC 2013-07-03 02:13:58
Программа кодирования : mkvmerge v5.9.0 ('On The Loose') built on Dec 15 2012 16:39:58
Библиотека кодирования : libebml v1.3.0 + libmatroska v1.4.0
Видео
Идентификатор : 1
Формат : AVC
Формат/Информация : Advanced Video Codec
Профиль формата : High@L4.1
Параметр CABAC формата : Да
Параметр ReFrames формата : 10 кадров
Идентификатор кодека : V_MPEG4/ISO/AVC
Продолжительность : 1 ч. 47 м.
Битрейт : 2023 Кбит/сек
Ширина : 1044 пикселя
Высота : 436 пикселей
Соотношение сторон : 2,40:1
Режим частоты кадров : Постоянный
Частота кадров : 23,976 кадра/сек
Цветовое пространство : YUV
Субдискретизация насыщенности : 4:2:0
Битовая глубина : 8 бит
Тип развёртки : Прогрессивная
Бит/(Пиксели*Кадры) : 0.185
Размер потока : 1,47 Гбайт (69%)
Заголовок : -=POTROKS=-
Библиотека кодирования : x264 core 125 r2208 d9d2288
Настройки программы : cabac=1 / ref=10 / deblock=1:-2:-1 / analyse=0x3:0x133 / me=umh / subme=11 / psy=1 / psy_rd=1.05:0.00 / mixed_ref=1 / me_range=32 / chroma_me=1 / trellis=2 / 8x8dct=1 / cqm=0 / deadzone=21,11 / fast_pskip=0 / chroma_qp_offset=-2 / threads=9 / lookahead_threads=1 / sliced_threads=0 / nr=0 / decimate=1 / interlaced=0 / bluray_compat=0 / constrained_intra=0 / bframes=11 / b_pyramid=2 / b_adapt=2 / b_bias=0 / direct=3 / weightb=1 / open_gop=0 / weightp=2 / keyint=240 / keyint_min=23 / scenecut=40 / intra_refresh=0 / rc_lookahead=150 / rc=2pass / mbtree=1 / bitrate=2023 / ratetol=1.0 / qcomp=0.70 / qpmin=0 / qpmax=69 / qpstep=4 / cplxblur=20.0 / qblur=0.5 / vbv_maxrate=20000 / vbv_bufsize=20000 / nal_hrd=none / ip_ratio=1.35 / aq=1:0.90
Язык : English
Default : Да
Forced : Нет
Аудио #1
Идентификатор : 2
Формат : AC-3
Формат/Информация : Audio Coding 3
Расширение режима : CM (complete main)
Параметр Endianness формата : Big
Идентификатор кодека : A_AC3
Продолжительность : 1 ч. 47 м.
Вид битрейта : Постоянный
Битрейт : 384 Кбит/сек
Каналы : 6 каналов
Расположение каналов : Front: L C R, Side: L R, LFE
Частота : 48,0 КГц
Битовая глубина : 16 бит
Метод сжатия : С потерями
Размер потока : 294 Мбайт (13%)
Заголовок : DVO | DD 5.1 @ 384 kbps
Язык : Russian
Default : Да
Forced : Да
Аудио #2
Идентификатор : 3
Формат : AC-3
Формат/Информация : Audio Coding 3
Расширение режима : CM (complete main)
Параметр Endianness формата : Big
Идентификатор кодека : A_AC3
Продолжительность : 1 ч. 47 м.
Вид битрейта : Постоянный
Битрейт : 448 Кбит/сек
Каналы : 6 каналов
Расположение каналов : Front: L C R, Side: L R, LFE
Частота : 48,0 КГц
Битовая глубина : 16 бит
Метод сжатия : С потерями
Размер потока : 343 Мбайт (16%)
Заголовок : Original | DD 5.1 @ 448 kbps
Язык : English
Default : Нет
Forced : Нет
Текст
Идентификатор : 4
Формат : UTF-8
Идентификатор кодека : S_TEXT/UTF8
Идентификатор кодека/Информация : UTF-8 Plain Text
Язык : English
Default : Нет
Forced : Нет

log@x.264

x264 [info]: frame I:2174 Avg QP:15.84 size: 76927
x264 [info]: frame P:27776 Avg QP:17.01 size: 22610
x264 [info]: frame B:124153 Avg QP:19.25 size: 6671
x264 [info]: consecutive B-frames: 2.0% 0.7% 3.4% 8.2% 14.0% 53.5% 7.6% 2.3% 3.8% 1.0% 1.5% 2.0%
x264 [info]: mb I I16..4: 6.3% 71.6% 22.0%
x264 [info]: mb P I16..4: 0.2% 3.7% 1.3% P16..4: 29.3% 36.3% 17.5% 4.1% 0.5% skip: 7.1%
x264 [info]: mb B I16..4: 0.0% 0.5% 0.2% B16..8: 34.9% 19.4% 3.4% direct: 3.7% skip:37.9% L0:45.9% L1:44.4% BI: 9.7%
x264 [info]: 8x8 transform intra:70.7% inter:54.1%
x264 [info]: direct mvs spatial:98.5% temporal:1.5%
x264 [info]: coded y,uvDC,uvAC intra: 88.5% 89.9% 76.8% inter: 20.9% 15.0% 4.4%
x264 [info]: i16 v,h,dc,p: 38% 13% 5% 44%
x264 [info]: i8 v,h,dc,ddl,ddr,vr,hd,vl,hu: 15% 9% 7% 9% 12% 13% 12% 11% 11%
x264 [info]: i4 v,h,dc,ddl,ddr,vr,hd,vl,hu: 29% 12% 5% 7% 10% 10% 9% 8% 9%
x264 [info]: i8c dc,h,v,p: 40% 22% 22% 15%
x264 [info]: Weighted P-Frames: Y:2.0% UV:0.6%
x264 [info]: ref P L0: 45.6% 8.8% 19.3% 7.1% 6.0% 4.1% 3.7% 1.9% 1.8% 1.6% 0.1% 0.0%
x264 [info]: ref B L0: 67.2% 14.4% 7.4% 3.7% 2.7% 2.1% 1.7% 0.7% 0.2%
x264 [info]: ref B L1: 89.6% 10.4%
x264 [info]: kb/s:2020.67
x264 [total]: encoded 154103 frames, 8.15 fps, 2020.67 kb/s
TIME
------------------------------
Общее время кодирования: 7 hour 44 min 59 sec
Файл получился на: 1549.34 mb

Скриншоты

Скачать

Скачать торрент!

Как скачивать? · Что такое торрент? · Рейтинг и ограничения

Сайт не распространяет и не хранит электронные версии произведений, а лишь предоставляет доступ к создаваемому пользователями каталогу ссылок на торрент-файлы, которые содержат только списки хеш-сумм

[Профиль] [ЛС]
Показать сообщения:    
Ответить на тему

Текущее время: Сегодня 07:50

Часовой пояс: GMT + 4



Вы не можете начинать темы
Вы не можете отвечать на сообщения
Вы не можете редактировать свои сообщения
Вы не можете удалять свои сообщения
Вы не можете голосовать в опросах
Вы не можете прикреплять файлы к сообщениям
Вы не можете скачивать файлы