Бесстрашный / Fearless (Питер Уир / Peter Weir) [1993 г., США, драма, WEB-DL 720p] MVO (Россия) + AVO (Дольский) + Original Eng + Sub (Rus, Eng)

Ответить на тему
 
Автор Сообщение

user ®

Стаж: 7 лет 7 месяцев

Сообщений: 20008

Пост Пост: #1 от 10-Авг-2013 18:55

[Цитировать]

Бесстрашный / Fearless- Год выпуска: 1993
Страна: США
Жанр: драма
Продолжительность: 02:02:04
Перевод:
  • Профессиональный (многоголосый, закадровый) ТК «Россия»
  • Авторский (одноголосый, закадровый) Андрей Дольский
Оригинальная аудиодорожка: Английская
Cубтитры: Русские, английские-Режиссер: Питер Уир / Peter Weir
В ролях: Джефф Бриджес, Изабелла Росселлини, Рози Перес, Том Халс, Джон Туртурро, Бенисио Дель Торо, Дирдри О’Коннелл, Джон де Ланси, Спенсер Врумэн, Дэниел Черни-Описание: Макс Клейн выжил в ужасной авиакатастрофе, но это потрясение изменило всю его жизнь. Он больше не испытывает страха смерти и считает себя неуязвимым, отстранясь при этом от семьи и друзей.
Но, следуя совету психиатра, Макс начинает общаться с убитой горем Карлой, которая также выжила в катастрофе, но потеряла в ней маленького сына. Быть может, если Максу удастся помочь Карле, он поможет и себе самому…- | Сэмпл-Качество: WEB-DL 720p (fiend)
Контейнер: MKV
Видео: 1280x720 (1.78:1), 23.976 fps, 4235 kbps, 0.19 bit/pixel
Аудио 1: Русский AC3 2.0, 48 kHz, 192 kbps — «Россия»
Аудио 2: Русский AC3 2.0, 48 kHz, 128 kbps — Дольский
Аудио 3: Английский AAC-LC 2.0, 48 kHz, ~160 kbps
Формат субтитров: softsub (SRT)

Скриншоты


MI

Общее
Уникальный идентификатор : 173896710927389345644824240538980847640 (0x82D349CCC112B3409DE9D020919E1018)
Полное имя : Fearless.1993.720p.WEB-DL.mkv
Формат : Matroska
Версия формата : Version 2
Размер файла : 4,02 Гбайт
Продолжительность : 2 ч. 2 м.
Общий поток : 4716 Кбит/сек
Название фильма : Fearless 1993 –
Дата кодирования : UTC 2013-08-09 08:40:17
Программа кодирования : mkvmerge v6.1.0 ('Old Devil') built on Mar 2 2013 14:32:37
Библиотека кодирования : libebml v1.3.0 + libmatroska v1.4.0
Attachment : Yes
Видео
Идентификатор : 1
Формат : AVC
Формат/Информация : Advanced Video Codec
Профиль формата : High@L3.1
Параметр CABAC формата : Нет
Параметр ReFrames формата : 2 кадра
Идентификатор кодека : V_MPEG4/ISO/AVC
Продолжительность : 2 ч. 2 м.
Ширина : 1280 пикселей
Высота : 720 пикселей
Соотношение сторон : 16:9
Режим частоты кадров : Постоянный
Частота кадров : 23,976 кадра/сек
Цветовое пространство : YUV
Субдискретизация насыщенности : 4:2:0
Битовая глубина : 8 бит
Тип развёртки : Прогрессивная
Заголовок : Fearless.1993.720p.WEB-DL.AAC2.0.h.264-fiend
Язык : English
Default : Да
Forced : Нет
Основные цвета : BT.709
Характеристики трансфера : BT.709
Коэффициенты матрицы : BT.709
Аудио #1
Идентификатор : 2
Формат : AC-3
Формат/Информация : Audio Coding 3
Расширение режима : CM (complete main)
Параметр Endianness формата : Big
Идентификатор кодека : A_AC3
Продолжительность : 2 ч. 2 м.
Вид битрейта : Постоянный
Битрейт : 192 Кбит/сек
Каналы : 2 канала
Расположение каналов : Front: L R
Частота : 48,0 КГц
Битовая глубина : 16 бит
Метод сжатия : С потерями
Размер потока : 168 Мбайт (4%)
Заголовок : MVO – ТК «Россия»
Язык : Russian
Default : Да
Forced : Нет
Аудио #2
Идентификатор : 3
Формат : AC-3
Формат/Информация : Audio Coding 3
Расширение режима : CM (complete main)
Параметр Endianness формата : Big
Идентификатор кодека : A_AC3
Продолжительность : 2 ч. 2 м.
Вид битрейта : Постоянный
Битрейт : 128 Кбит/сек
Каналы : 2 канала
Расположение каналов : Front: L R
Частота : 48,0 КГц
Битовая глубина : 16 бит
Метод сжатия : С потерями
Размер потока : 112 Мбайт (3%)
Заголовок : AVO – Дольский
Язык : Russian
Default : Нет
Forced : Нет
Аудио #3
Идентификатор : 4
Формат : AAC
Формат/Информация : Advanced Audio Codec
Профиль формата : LC
Идентификатор кодека : A_AAC
Продолжительность : 2 ч. 2 м.
Каналы : 2 канала
Расположение каналов : Front: L R
Частота : 48,0 КГц
Метод сжатия : С потерями
Заголовок : Original
Язык : English
Default : Нет
Forced : Нет
Текст #1
Идентификатор : 5
Формат : UTF-8
Идентификатор кодека : S_TEXT/UTF8
Идентификатор кодека/Информация : UTF-8 Plain Text
Заголовок : Fikaloid («Россия»)
Язык : Russian
Default : Нет
Forced : Нет
Текст #2
Идентификатор : 6
Формат : UTF-8
Идентификатор кодека : S_TEXT/UTF8
Идентификатор кодека/Информация : UTF-8 Plain Text
Язык : English
Default : Нет
Forced : Нет
Скачать

Скачать торрент!

Как скачивать? · Что такое торрент? · Рейтинг и ограничения

Сайт не распространяет и не хранит электронные версии произведений, а лишь предоставляет доступ к создаваемому пользователями каталогу ссылок на торрент-файлы, которые содержат только списки хеш-сумм

[Профиль] [ЛС]
Показать сообщения:    
Ответить на тему

Текущее время: Сегодня 20:03

Часовой пояс: GMT + 4



Вы не можете начинать темы
Вы не можете отвечать на сообщения
Вы не можете редактировать свои сообщения
Вы не можете удалять свои сообщения
Вы не можете голосовать в опросах
Вы не можете прикреплять файлы к сообщениям
Вы не можете скачивать файлы