Создатель кумиров / Идолопоклонник / The Idolmaker (Тейлор Хэкфорд / Taylor Hackford) [1980, США, драма, биография, музыка, HDTV 1080i] DVO (НТВ+) + Original Eng

Ответить на тему
 
Автор Сообщение

user ®

Стаж: 7 лет 7 месяцев

Сообщений: 20008

Пост Пост: #1 от 10-Авг-2013 18:55

[Цитировать]

Создатель кумиров / Идолопоклонник / The Idolmaker
Страна: США
Студия: Kirkwood, Koch Company
Жанр: драма, биография, музыка
Год выпуска: 1980
Продолжительность: 01:53:50
Перевод: Профессиональный (двухголосый закадровый) НТВ+
Cубтитры: нет
Оригинальная аудиодорожка: английский
Режиссер: Тейлор Хэкфорд / Taylor Hackford
В ролях: Рей Шарки (Винсент Вакарри), Това Фелдшу (Бренда Робертс), Питер Галлахер (Чезаре), Джо Пантолиано (Джино Плато), Морин МакКормик (Эллен Филдс), Олимпия Дукакис (миссис Ваккари)
Описание: В основе сюжет - факты из жизни музыкального продюсера Боба Маркуччи, который открыл таких звезд, как Фрэнки Авалон и Фабиан. Менеджер и автор песен Винсент Вакари страстно желает открыть новую звезду рок-музыки. В местном клубе он обращает внимание на играющую там группу и предлагает одному из музыкантов, Томасо ДеЛоруссо, стать певцом. Томасо соглашается и спустя всего несколько месяцев под руководством Винсента становится звездой рок-н-ролла. После первого успеха Винсент решает продолжить карьеру продюсера и сделать новой звездой помощника официанта Гвидо. Постепенно работа полностью поглощает Винсента, что очень сильно беспокоит его подругу Бренду...

Тип релиза: HDTV 1080i
Контейнер: MKV
Видео: AVC 1920x1080 (16:9) 25.0fps Bit rate 5215Kbps
Аудио 1: MP1 Layer 2 48.0KHz 2ch 192 Kbps rus
Аудио 2: AC3 48.0KHz 2ch 192 Kbps eng

MediaInfo

General
Complete name : E:\torrent\Создатель кумиров.mkv
Format : Matroska
File size : 4.54 GiB
Duration : 1h 53mn
Overall bit rate : 5 713 Kbps
Encoded date : UTC 2013-08-10 09:27:04
Writing application : mkvmerge v5.7.0 ('The Whirlwind') built on Jul 8 2012 20:08:51
Writing library : libebml v1.2.3 + libmatroska v1.3.0
Video
ID : 1
Format : AVC
Format/Info : Advanced Video Codec
Format profile : High@L4.0
Format settings, CABAC : Yes
Format settings, ReFrames : 3 frames
Format settings, GOP : M=1, N=2
Muxing mode : Container profile=Unknown@4.0
Codec ID : V_MPEG4/ISO/AVC
Duration : 1h 53mn
Bit rate : 5 215 Kbps
Width : 1 920 pixels
Height : 1 080 pixels
Display aspect ratio : 16:9
Frame rate : 50.000 fps
Original frame rate : 25.000 fps
Standard : Component
Color space : YUV
Chroma subsampling : 4:2:0
Bit depth : 8 bits
Scan type : Interlaced
Scan order : Top Field First
Bits/(Pixel*Frame) : 0.050
Stream size : 4.15 GiB (91%)
Title : Sozdatel kumirov_HDTV_1080i
Color primaries : BT.709-5, BT.1361, IEC 61966-2-4, SMPTE RP177
Transfer characteristics : BT.709-5, BT.1361
Matrix coefficients : BT.709-5, BT.1361, IEC 61966-2-4 709, SMPTE RP177
Audio #1
ID : 2
Format : MPEG Audio
Format version : Version 1
Format profile : Layer 2
Codec ID : A_MPEG/L2
Codec ID/Hint : MP2
Duration : 1h 53mn
Bit rate mode : Constant
Bit rate : 192 Kbps
Channel(s) : 2 channels
Sampling rate : 48.0 KHz
Video delay : 90ms
Stream size : 156 MiB (3%)
Title : Sozdatel kumirov_MP2_DVO_NTV+
Language : Russian
Audio #2
ID : 3
Format : AC-3
Format/Info : Audio Coding 3
Mode extension : CM (complete main)
Codec ID : A_AC3
Duration : 1h 53mn
Bit rate mode : Constant
Bit rate : 192 Kbps
Channel(s) : 2 channels
Channel positions : Front: L R
Sampling rate : 48.0 KHz
Bit depth : 16 bits
Stream size : 156 MiB (3%)
Title : Sozdatel kumirov_AC3_original eng

Скриншот с названием фильма

Скриншоты

Скачать

Скачать торрент!

Как скачивать? · Что такое торрент? · Рейтинг и ограничения

Сайт не распространяет и не хранит электронные версии произведений, а лишь предоставляет доступ к создаваемому пользователями каталогу ссылок на торрент-файлы, которые содержат только списки хеш-сумм

[Профиль] [ЛС]
Показать сообщения:    
Ответить на тему

Текущее время: Сегодня 00:16

Часовой пояс: GMT + 4



Вы не можете начинать темы
Вы не можете отвечать на сообщения
Вы не можете редактировать свои сообщения
Вы не можете удалять свои сообщения
Вы не можете голосовать в опросах
Вы не можете прикреплять файлы к сообщениям
Вы не можете скачивать файлы