Рикки-Тикки-Тави (Александра Снежко-Блоцкая) [1965 г., мультфильм, DVB]

Ответить на тему
 
Автор Сообщение

user ®

Стаж: 7 лет 7 месяцев

Сообщений: 20008

Пост Пост: #1 от 10-Авг-2013 02:15

[Цитировать]

Рикки-Тикки-Тави
Жанр: мультфильм
Год выпуска: 1965
Продолжительность: 00:19:26
Режиссёр: Александра Снежко-Блоцкая
Описание: красивая сказка Редъярда Киплинга про славного мангуста, объявившего беспощадную войну кобрам Нагу и Нагайне, которые держали в страхе весь тропический лес и его окрестности ...
Доп. информация:

Релиз группы:
Трансляция спутникового канала: "Карусель"
Качество видео: DVB
Формат видео: MPEG-PS
Видео: MPEG2 Video, 720x576, 25 fps, 3900 kbps
Аудио: MPEG Audio, 2 сh, 48 kHz, 192 kbps

Сравнение

[url=http://***/forum/viewtopic.php?t=3327957]http://***/forum/viewtopic.php?t=3327957[/url]
http://www.screenshotcomparison.com/comparison/35962
[url=http://***/forum/viewtopic.php?t=1776786]http://***/forum/viewtopic.php?t=1776786[/url]
http://www.screenshotcomparison.com/comparison/35964
[url=http://***/forum/viewtopic.php?t=3567580]http://***/forum/viewtopic.php?t=3567580[/url]
http://www.screenshotcomparison.com/comparison/35966
[url=http://***/forum/viewtopic.php?t=3558511]http://***/forum/viewtopic.php?t=3558511[/url]
http://www.screenshotcomparison.com/comparison/35967

MediaInfo

General
Complete name : D:\Рикки-Тикки-Тави. (1965)_DVB by SLuMeP.mpg
Format : MPEG-PS
File size : 585 MiB
Duration : 19mn 26s
Overall bit rate mode : Variable
Overall bit rate : 4 205 Kbps
Video #224
ID : 224 (0xE0)
Format : MPEG Video
Format version : Version 2
Format profile : Main@Main
Format settings, BVOP : Yes
Format settings, Matrix : Custom
Duration : 19mn 26s
Bit rate mode : Variable
Bit rate : 3 930 Kbps
Maximum bit rate : 5 000 Kbps
Width : 720 pixels
Height : 576 pixels
Display aspect ratio : 4:3
Frame rate : 25.000 fps
Standard : PAL
Color space : YUV
Chroma subsampling : 4:2:0
Bit depth : 8 bits
Scan type : Interlaced
Scan order : Top Field First
Compression mode : Lossy
Bits/(Pixel*Frame) : 0.379
Stream size : 547 MiB (93%)
Audio #192
ID : 192 (0xC0)
Format : MPEG Audio
Format version : Version 1
Format profile : Layer 2
Duration : 19mn 26s
Bit rate mode : Constant
Bit rate : 192 Kbps
Channel(s) : 2 channels
Sampling rate : 48.0 KHz
Compression mode : Lossy
Stream size : 26.7 MiB (5%)

Скриншоты

Скачать

Скачать торрент!

Как скачивать? · Что такое торрент? · Рейтинг и ограничения

Сайт не распространяет и не хранит электронные версии произведений, а лишь предоставляет доступ к создаваемому пользователями каталогу ссылок на торрент-файлы, которые содержат только списки хеш-сумм

[Профиль] [ЛС]
Показать сообщения:    
Ответить на тему

Текущее время: Сегодня 17:40

Часовой пояс: GMT + 4



Вы не можете начинать темы
Вы не можете отвечать на сообщения
Вы не можете редактировать свои сообщения
Вы не можете удалять свои сообщения
Вы не можете голосовать в опросах
Вы не можете прикреплять файлы к сообщениям
Вы не можете скачивать файлы