Летающий тигр / The Flying Tiger / Fei hu xiao ba wang (Тан Шэн / Tong Sang) [1973, Тайвань, боевик, боевые искусства, DVDRip] VO (Jet)

Ответить на тему
 
Автор Сообщение

user ®

Стаж: 13 лет

Сообщений: 15071

Пост Пост: #1 от 10-Авг-2013 02:15

[Цитировать]

Летающий тигр / The Flying Tiger / Fei hu xiao ba wang
Страна: Тайвань
Жанр: боевик, боевые искусства
Год выпуска: 1973
Продолжительность: 01:22:42
Перевод: Одноголосый закадровый Jet
Cубтитры: нет
Режиссер: Тан Шэн / Tong Sang
В ролях: Ясуаки Курата, Сильвия Чан, Ван Гуаньсюн, Тянь Фэн, Лэй Мали, Чуань Юань, Шань Мао, Сюэ Хань
Описание: Молодой парень по имени Кван Сюн устраивается на работу в мото шоу. Очень скоро наш герой узнаёт о том, что мото шоу - просто прикрытие, а на самом деле это наркотический синдикат, который занимается оптовой поставкой наркотиков. Раскусив всю пагубность деяний своих работодателей, Кван Сюн решает бросить вызов негодяям... (В. Береговых)
Благодарность: За исходник, перевод, озвучивание и описание благодарность выражается Виктору Береговых (Jet).
Сэмпл: http://multi-up.com/892533
Качество видео: DVDRip
Формат видео: AVI
Видео: 704x384 (1.83:1), 29.970 fps, XviD MPEG-4 ~2227 kbps avg, 0.28 bit/pixel
Аудио: 48 kHz, MPEG Layer 3, 2 ch, ~128.00 kbps avg

MediaInfo

Format : AVI
Format/Info : Audio Video Interleave
File size : 1,37 Гбайт
Duration : 1 ч. 22 м.
Overall bit rate : 2367 Кбит/сек
Writing application : VirtualDubMod 1.5.10.3 | www.virtualdub-fr.org || (build 2550/release)
Writing library : VirtualDubMod build 2550/release
Видео
ID : 0
Format : MPEG-4 Visual
Format profile : Advanced Simple@L5
Format settings, BVOP : 2
Format settings, QPel : Нет
Format settings, GMC : Без точки перехода
Format settings, Matrix : Default (MPEG)
Codec ID : XVID
Codec ID/Hint : XviD
Duration : 1 ч. 22 м.
Bit rate : 2228 Кбит/сек
Width : 704 пикселя
Height : 384 пикселя
Display aspect ratio : 1,85:1
Frame rate : 29,970 кадров/сек
Color space : YUV
Chroma subsampling : 4:2:0
Bit depth : 8 бит
Scan type : Прогрессивная
Compression mode : С потерями
Bits/(Pixel*Frame) : 0.275
Stream size : 1,29 Гбайт (94%)
Writing library : XviD 1.2.1 (UTC 2008-12-04)
Аудио
ID : 1
Format : MPEG Audio
Format version : Version 1
Format profile : Layer 3
Codec ID : 55
Codec ID/Hint : MP3
Duration : 1 ч. 22 м.
Bit rate mode : Постоянный
Bit rate : 128 Кбит/сек
Channel(s) : 2 канала
Sampling rate : 48,0 КГц
Compression mode : С потерями
Stream size : 75,7 Мбайт (5%)
Alignment : Соединение по промежуткам
Interleave, duration : 33 мс. (1,00 видеокадр)
Interleave, preload duration : 504 мс.

Скриншот c названием фильма

Скриншоты

Скачать

Скачать торрент! Летающий тигр / The Flying Tiger / Fei hu xiao ba wang (Тан Шэн / Tong Sang) [1973, Тайвань, боевик, боевые искусства, DVDRip] VO (Jet)

Как скачивать? · Что такое торрент? · Рейтинг и ограничения

Сайт не распространяет и не хранит электронные версии произведений, а лишь предоставляет доступ к создаваемому пользователями каталогу ссылок на торрент-файлы, которые содержат только списки хеш-сумм

[Профиль] [ЛС]
Показать сообщения:    
Ответить на тему

Текущее время: Сегодня 16:24

Часовой пояс: GMT + 4



Вы не можете начинать темы
Вы не можете отвечать на сообщения
Вы не можете редактировать свои сообщения
Вы не можете удалять свои сообщения
Вы не можете голосовать в опросах
Вы не можете прикреплять файлы к сообщениям
Вы не можете скачивать файлы