Мастер тай-цзи / Man of Tai Chi (Киану Ривз / Keanu Reeves) [2013, США, Китай, Гонконг, боевик, HDTVRip] VO

Ответить на тему
 
Автор Сообщение

user ®

Стаж: 11 лет

Сообщений: 15151

Пост Пост: #1 от 09-Авг-2013 20:30

[Цитировать]

Мастер тай-цзиMan of Tai Chi- Страна: США, Китай, Гонконг
Жанр: боевик
Год выпуска: 2013
Продолжительность: 01:40:59-Перевод: Одноголосый закадровый [звук с TS]
Субтитры: Китайский/Английский (хардсаб)
Режиссер: Киану Ривз / Keanu Reeves
В ролях: Тайгер Ху Чен, Киану Ривз, Карен Мок, Саймон Ям, Майкл Чан, Цин Е, Yu Hai, Сэм Ли, Ико Ювайс, Брахим Ачаббаке, Стивен Дасс, Оушен Хоу-Описание: Пекин. Амбициозный юноша Чэнь Линь-Ху по кличке «Тигр» подрабатывает скромным курьером, но после работы он превращается в молодую звезду боевых искусств, постепенно оттачивая свои навыки, следуя традициям Тайцзи Лин Кун. Обучившись размеренным и мирным движениям из Тайцзи, он приспособил их для бойцовских соревнований.
Донака Марк, скрываясь от гонконгской полиции, попадает в другой столичный мегаполис, где царит неразбериха и хаос, и открывает там подпольный бойцовский клуб, в котором реальные деньги можно заработать, побеждая противников в поединках без правил, транслируемых в прямом эфире богатым клиентам.
Подыскивая новую «звезду», Донака пытается приманить Тигра обещанием лёгкого заработка. Вхождение в этот мир выявляет самую тёмную сторону Чэнь Линь-Ху, но ему необходимы наличные. Его навыки помогают ему на ринге, но сможет ли он, сражаясь, сохранить в себе чистоту и добропорядочность?-

-

Доп. Информация

Сценарий: Майкл Дж. Куни / Michael G. Cooney
Продюсер: Лимор Сиван / Lemore Syvan, Чжан Дасин / Zhang Daxing, Ман-Ю Ли / Man-Yiu Lee, Шэрон Миллер / Sharon Miller
Оператор: Эллиот Дэвис / Elliot Davis
Бюджет: $25 000 000
Сборы в мире: $4 280 000
Мировая премьера: 5 июля 2013
-Качество: HDTVRip
Контейнер: AVI
Видео: XviD, 720x304 (2.35:1), 1735 kbps, 25 fps, 0,317 bpp
Аудио: AC3 / 2.0 / 48 kHz / 192 kbps / 16 bit-

Media Info

General
Complete name : G:\Master.Taj-Czy.2013.Lt.HDTVRip.1400MB.avi
Format : AVI
Format/Info : Audio Video Interleave
File size : 1.37 GiB
Duration : 1h 40mn
Overall bit rate : 1 938 Kbps
Writing application : VirtualDubMod 1.5.10.2 (build 2540/release)
Writing library : VirtualDubMod build 2540/release
Video
ID : 0
Format : MPEG-4 Visual
Format profile : Advanced Simple@L5
Format settings, BVOP : 2
Format settings, QPel : No
Format settings, GMC : No warppoints
Format settings, Matrix : Default (MPEG)
Codec ID : XVID
Codec ID/Hint : XviD
Duration : 1h 40mn
Bit rate : 1 736 Kbps
Width : 720 pixels
Height : 304 pixels
Display aspect ratio : 2.35:1
Frame rate : 25.000 fps
Color space : YUV
Chroma subsampling : 4:2:0
Bit depth : 8 bits
Scan type : Progressive
Compression mode : Lossy
Bits/(Pixel*Frame) : 0.317
Stream size : 1.22 GiB (90%)
Writing library : XviD 1.2.1 (UTC 2008-12-04)
Audio
ID : 1
Format : AC-3
Format/Info : Audio Coding 3
Mode extension : CM (complete main)
Codec ID : 2000
Duration : 1h 40mn
Bit rate mode : Constant
Bit rate : 192 Kbps
Channel(s) : 2 channels
Channel positions : Front: L R
Sampling rate : 48.0 KHz
Bit depth : 16 bits
Compression mode : Lossy
Stream size : 139 MiB (10%)
Alignment : Split accross interleaves
Interleave, duration : 40 ms (1.00 video frame)
Interleave, preload duration : 500 ms

Скриншот с названием фильма

Скриншоты

Скачать

Скачать торрент! Мастер тай-цзи / Man of Tai Chi (Киану Ривз / Keanu Reeves) [2013, США, Китай, Гонконг, боевик, HDTVRip] VO

Как скачивать? · Что такое торрент? · Рейтинг и ограничения

Сайт не распространяет и не хранит электронные версии произведений, а лишь предоставляет доступ к создаваемому пользователями каталогу ссылок на торрент-файлы, которые содержат только списки хеш-сумм

[Профиль] [ЛС]
Показать сообщения:    
Ответить на тему

Текущее время: Сегодня 05:52

Часовой пояс: GMT + 4



Вы не можете начинать темы
Вы не можете отвечать на сообщения
Вы не можете редактировать свои сообщения
Вы не можете удалять свои сообщения
Вы не можете голосовать в опросах
Вы не можете прикреплять файлы к сообщениям
Вы не можете скачивать файлы