Обобрать по-крупному / The Big Sting / Gui ma shen tou (Тони Лю / Tony Liu Jun-Guk) [1984, Гонконг, комедия, DVDRip] VO (Jet)

Ответить на тему
 
Автор Сообщение

user ®

Стаж: 11 лет

Сообщений: 15151

Пост Пост: #1 от 09-Авг-2013 20:30

[Цитировать]

Обобрать по-крупному / The Big Sting / Gui ma shen tou
Страна: Гонконг
Жанр: комедия
Год выпуска: 1984
Продолжительность: 01:25:04-Перевод: Одноголосый закадровый Виктор Береговых (Jet)
Оригинальная аудиодорожка: нет
Субтитры: нет-Режиссер: Тони Лю / Tony Liu Jun-Guk-В ролях: Леун Ка Ян, Лау Вин, Вон Ю, Ло Лье, Ли Хой Сан, У Гам, Ронни
-
Описание: Трое друзей решают продать статуэтку, но сделка заканчивается расправой для них. Беременные жёны обещают своим мужьям, что их дети отомстят за них через 24 года. Спустя 24 года их дети находят друг друга и начинают мстить убийце своих родителей...-Релиз групп -- -Качество видео: DVDRip (DVD5)
Формат видео: AVI
Видео: XviD, 720x400 (1.80:1), 23.976 fps, 2252 kbps avg, 0.33 bit/pixel
Аудио: Русский MEPG layer 3, 192 kbps

Доп. информация:

Переводчик: Rainmaker
Рип: Public Enemy (((
Постер: Public Enemy (((

MediaInfo

Format : AVI
Format/Info : Audio Video Interleave
File size : 1.46 GiB
Duration : 1h 25mn
Overall bit rate : 2 454 Kbps
Writing application : VirtualDubMod 1.5.10.3 | www.virtualdub-fr.org || (build 2550/release)
Writing library : VirtualDubMod build 2550/release
Video
ID : 0
Format : MPEG-4 Visual
Format profile : Advanced Simple@L5
Format settings, BVOP : 1
Format settings, QPel : No
Format settings, GMC : No warppoints
Format settings, Matrix : Custom
Codec ID : XVID
Codec ID/Hint : XviD
Duration : 1h 25mn
Bit rate : 2 253 Kbps
Width : 720 pixels
Height : 400 pixels
Display aspect ratio : 16:9
Frame rate : 23.976 fps
Color space : YUV
Chroma subsampling : 4:2:0
Bit depth : 8 bits
Scan type : Progressive
Compression mode : Lossy
Bits/(Pixel*Frame) : 0.326
Stream size : 1.34 GiB (92%)
Writing library : XviD 73
Audio
ID : 1
Format : MPEG Audio
Format version : Version 1
Format profile : Layer 3
Codec ID : 55
Codec ID/Hint : MP3
Duration : 1h 25mn
Bit rate mode : Constant
Bit rate : 192 Kbps
Channel(s) : 2 channels
Sampling rate : 48.0 KHz
Compression mode : Lossy
Stream size : 117 MiB (8%)
Alignment : Aligned on interleaves
Interleave, duration : 42 ms (1.00 video frame)
Interleave, preload duration : 504 ms

Скриншот с названием

Скриншоты

Скачать

Скачать торрент! Обобрать по-крупному / The Big Sting / Gui ma shen tou (Тони Лю / Tony Liu Jun-Guk) [1984, Гонконг, комедия, DVDRip] VO (Jet)

Как скачивать? · Что такое торрент? · Рейтинг и ограничения

Сайт не распространяет и не хранит электронные версии произведений, а лишь предоставляет доступ к создаваемому пользователями каталогу ссылок на торрент-файлы, которые содержат только списки хеш-сумм

[Профиль] [ЛС]
Показать сообщения:    
Ответить на тему

Текущее время: Сегодня 04:10

Часовой пояс: GMT + 4



Вы не можете начинать темы
Вы не можете отвечать на сообщения
Вы не можете редактировать свои сообщения
Вы не можете удалять свои сообщения
Вы не можете голосовать в опросах
Вы не можете прикреплять файлы к сообщениям
Вы не можете скачивать файлы