Сердцу не прикажешь / Dil Hai Ki Manta Nahin (Махеш Бхатт / Mahesh Bhatt) [1991, Индия, мелодрама, DVD5] MVO

Ответить на тему
 
Автор Сообщение

user ®

Стаж: 12 лет

Сообщений: 15124

Пост Пост: #1 от 09-Авг-2013 20:30

[Цитировать]

Сердцу не прикажешь / Dil Hai Ki Manta Nahin
Страна: Индия
Жанр: мелодрама
Год выпуска: 1991
Продолжительность: 02:34:24
Перевод: Профессиональный (многоголосый закадровый)
Cубтитры: нет
Оригинальная аудио дорожка: нет
Режиссер: Махеш Бхатт / Mahesh Bhatt
В ролях: Аамир Кхан, Пуджа Бхатт, Анупам Кхер, Самир Читер, Тику Талсания, Ракеш Беди, Вирендра Саксена, Автар Гилл, Муштак Кхан, Джавед Кхан, Шамми, Амрит Патель, Шобха Кхоте, Раджеш Пури, Дипак Тиджори, Робин Бхатт
Дата мировой премьеры: 1991, Вишеш Филмз
Дата выхода DVD релиза: 2006, ООО "Звук"

Описание: Пуджа, дочка судостроительного магната, растет избалованной и эгоистичной девчонкой. Она мечтает выйти замуж за кинозвезду Дипака Кумара. Чтобы встретиться с Дипаком она сбегает из дома и направляется в Бангалор, в место его съемок. Но в дороге теряет кошелек и становится беспомощной. Тут с ней знакомится молодой репортер Парху, он готов помочь ей добраться до Бангалора, четко представляя, что эта поездка может стать материалом для сенсационного репортажа…
Сэмпл: http://yadi.sk/d/JDQ36TiF7hsrk
Качество видео: DVD5
Формат видео: DVD Video
Видео: MPEG-2, NTSC 4:3 720x480@720x540, 4:3, 29,970 fps, ~3652 kbps
Аудио: AC3 2.0, 48,0 КГц, 192 kbps
Примечание : Сканы диска и обложки в папке полиграфия

Песни

Общая продолжительность: 00:05:44
1. Galyat sakhli sonyachi...
2. O mere sapro ke saudagar...
3. Adayein bhi nahi...
4. Dill hai ki manta nahi...
5. Dill tujhpe aa gaya...
6. Mainu ishq da...
7. Dulhan tu dulha main...
8. Tu pyar hai...

DVDInfo

Title: Сердцу не прикажешь (1991) DVD5
Size: 4.06 Gb ( 4 257 100,00 KBytes ) - DVD-5
Enabled regions: 1, 2, 3, 4, 5, 6, 7, 8
VTS_01 :
Play Length: 02:34:24+00:05:44+{00:08:21}+{00:21:54}+{00:11:58}+{00:09:36}+{00:08:52}+{00:13:01}+{00:07:38}+{01:27:03}
Video: NTSC 4:3 (720x480) VBR
Audio:
Russian, AC3, 2/0 (L,R) ch, 192 kbps, Delay 0 mSec
* Menus Information *
VIDEO_TS Menu
Video:
NTSC 4:3 (720x480) VBR
Audio:
Not specified (Dolby AC3, 2 ch)
English Language Unit :
Title Menu
VTS_01 Menu
Video:
NTSC 4:3 (720x480) VBR
Audio:
Not specified (Dolby AC3, 2 ch)
English Language Unit :
Root Menu
Audio Menu
Chapter (PTT) Menu

MediaInfo

Общее
Полное имя : D:\Фильмы\Зарубежная классика\Сердцу не прикажешь (1991)\Сердцу не прикажешь (1991) DVD5\VIDEO_TS\VTS_01_1.VOB
Формат : MPEG-PS
Размер файла : 1024 Мбайт
Продолжительность : 36 м.
Режим общего битрейта : Переменный
Общий поток : 3922 Кбит/сек
Видео
Идентификатор : 224 (0xE0)
Формат : MPEG Video
Версия формата : Version 2
Профиль формата : Main@Main
Параметр BVOP формата : Да
Параметр матрицы формата : Выборочная
Параметр GOP формата : Variable
Продолжительность : 36 м.
Вид битрейта : Переменный
Битрейт : 3652 Кбит/сек
Максимальный битрейт : 9000 Кбит/сек
Ширина : 720 пикселей
Высота : 480 пикселей
Соотношение сторон : 4:3
Частота кадров : 29,970 кадров/сек
Стандарт вещания : NTSC
Цветовое пространство : YUV
Субдискретизация насыщенности : 4:2:0
Битовая глубина : 8 бит
Тип развёртки : Чересстрочная
Порядок развёртки : Верхнее поле первое
Метод сжатия : С потерями
Бит/(Пиксели*Кадры) : 0.353
TimeCode_FirstFrame : 00:00:00:00
TimeCode_Source : Group of pictures header
Размер потока : 953 Мбайт (93%)
Аудио
Идентификатор : 189 (0xBD)-128 (0x80)
Формат : AC-3
Формат/Информация : Audio Coding 3
Расширение режима : CM (complete main)
Параметр Endianness формата : Big
Режим смешивания : DVD-Video
Продолжительность : 36 м.
Вид битрейта : Постоянный
Битрейт : 192 Кбит/сек
Каналы : 2 канала
Расположение каналов : Front: L R
Частота : 48,0 КГц
Битовая глубина : 16 бит
Метод сжатия : С потерями
Размер потока : 50,1 Мбайт (5%)

Меню

Скриншоты


Сканы

Скачать

Скачать торрент! Сердцу не прикажешь / Dil Hai Ki Manta Nahin (Махеш Бхатт / Mahesh Bhatt) [1991, Индия, мелодрама, DVD5] MVO

Как скачивать? · Что такое торрент? · Рейтинг и ограничения

Сайт не распространяет и не хранит электронные версии произведений, а лишь предоставляет доступ к создаваемому пользователями каталогу ссылок на торрент-файлы, которые содержат только списки хеш-сумм

[Профиль] [ЛС]
Показать сообщения:    
Ответить на тему

Текущее время: Сегодня 13:04

Часовой пояс: GMT + 4



Вы не можете начинать темы
Вы не можете отвечать на сообщения
Вы не можете редактировать свои сообщения
Вы не можете удалять свои сообщения
Вы не можете голосовать в опросах
Вы не можете прикреплять файлы к сообщениям
Вы не можете скачивать файлы