Ши / Она / She (Эви Нешер / Avi Nesher) [1982, Италия, боевик, фэнтези, приключения, постапокалипсис, HDTV 1080i] DVO (НТВ+) + VO (NezPerce) + Original Eng

Ответить на тему
 
Автор Сообщение

user ®

Стаж: 7 лет 7 месяцев

Сообщений: 20008

Пост Пост: #1 от 09-Авг-2013 20:30

[Цитировать]

Ши / Она / She
Страна: Италия
Студия: Continental Motion Pictures, Royal Films B.V., Trans World Entertainment (TWE)
Жанр: боевик, фэнтези, приключения, постапокалипсис
Год выпуска: 1982
Продолжительность: 01:40:27
Перевод 1: Профессиональный (двухголосый закадровый) НТВ+
Перевод 2: Одноголосый закадровый NezPerce
Cубтитры: нет
Оригинальная аудиодорожка: английский
Режиссер: Эви Нешер / Avi Nesher
В ролях: Сэндал Бергман, Дэвид Госс, Куин Кесслер, Харрисон Мюллер мл., Elena Wiedermann, Гордон Митчел, Лори Шерман, Andrew McLeay, Сайрас Илайас, Дэвид Брэндон
Описание: Прошло двадцать лет после атомной войны. Девочка из мирного племени похищена злодеем Норком. Двое ее друзей, Том и Дик, отправляются на поиски. Вскоре они оказываются на территории племени королевы амазонок Аиши. Они попадают в плен и становятся рабами. В конце концов, Тому и Дику удается бежать и взять в заложницы саму королеву. Они требуют, чтобы Аиша отвела их во владения Норка. Путешественникам предстоит опасное путешествие через опустошенную войной пустыню, где им придется встретиться с мутантами, оборотнями, безумным ученым-генетиком и сумасшедшим, считающим себя Богом...

Доп. информация: За одноголосый перевод NezPerce спасибо Тарантиныч
Тип релиза: HDTV 1080i
Контейнер: MKV
Видео: AVC 1920x1080 (16:9)) 25.0fps Bit rate 6456Kbps
Аудио 1: AC3 48.0 KHz 2ch. 192kbps rus
Аудио 2: AC3 48.0 KHz 2ch. 192kbps rus
Аудио 3: AC3 48.0 KHz 2ch. 192kbps eng

MediaInfo

General
Complete name : E:\torrent\Ona_1982_HDTV 1080i.mkv
Format : Matroska
File size : 5.03 GiB
Duration : 1h 40mn
Overall bit rate : 7 174 Kbps
Encoded date : UTC 2013-08-09 05:45:03
Writing application : mkvmerge v5.7.0 ('The Whirlwind') built on Jul 8 2012 20:08:51
Writing library : libebml v1.2.3 + libmatroska v1.3.0
Video
ID : 1
Format : AVC
Format/Info : Advanced Video Codec
Format profile : High@L4.0
Format settings, CABAC : Yes
Format settings, ReFrames : 3 frames
Format settings, GOP : M=1, N=64
Muxing mode : Container profile=Unknown@4.0
Codec ID : V_MPEG4/ISO/AVC
Duration : 1h 40mn
Bit rate : 6 456 Kbps
Width : 1 920 pixels
Height : 1 080 pixels
Display aspect ratio : 16:9
Frame rate : 50.000 fps
Original frame rate : 25.000 fps
Standard : Component
Color space : YUV
Chroma subsampling : 4:2:0
Bit depth : 8 bits
Scan type : Interlaced
Scan order : Top Field First
Bits/(Pixel*Frame) : 0.062
Stream size : 4.53 GiB (90%)
Title : She_1982_HDTV 1080i
Color primaries : BT.709-5, BT.1361, IEC 61966-2-4, SMPTE RP177
Transfer characteristics : BT.709-5, BT.1361
Matrix coefficients : BT.709-5, BT.1361, IEC 61966-2-4 709, SMPTE RP177
Audio #1
ID : 2
Format : AC-3
Format/Info : Audio Coding 3
Mode extension : CM (complete main)
Codec ID : A_AC3
Duration : 1h 40mn
Bit rate mode : Constant
Bit rate : 192 Kbps
Channel(s) : 2 channels
Channel positions : Front: L R
Sampling rate : 48.0 KHz
Bit depth : 16 bits
Stream size : 138 MiB (3%)
Title : She_1982_AC3_DVO_NTV+
Language : Russian
Audio #2
ID : 3
Format : AC-3
Format/Info : Audio Coding 3
Mode extension : CM (complete main)
Codec ID : A_AC3
Duration : 1h 40mn
Bit rate mode : Constant
Bit rate : 192 Kbps
Channel(s) : 2 channels
Channel positions : Front: L R
Sampling rate : 48.0 KHz
Bit depth : 16 bits
Stream size : 138 MiB (3%)
Title : She_1982_AC3_VO_NezPerce
Language : Russian
Audio #3
ID : 4
Format : AC-3
Format/Info : Audio Coding 3
Mode extension : CM (complete main)
Codec ID : A_AC3
Duration : 1h 40mn
Bit rate mode : Constant
Bit rate : 192 Kbps
Channel(s) : 2 channels
Channel positions : Front: L R
Sampling rate : 48.0 KHz
Bit depth : 16 bits
Stream size : 138 MiB (3%)
Title : She_1982_AC3_original eng

Скриншот с названием фильма

Скриншоты

Скачать

Скачать торрент!

Как скачивать? · Что такое торрент? · Рейтинг и ограничения

Сайт не распространяет и не хранит электронные версии произведений, а лишь предоставляет доступ к создаваемому пользователями каталогу ссылок на торрент-файлы, которые содержат только списки хеш-сумм

[Профиль] [ЛС]
Показать сообщения:    
Ответить на тему

Текущее время: Сегодня 01:47

Часовой пояс: GMT + 4



Вы не можете начинать темы
Вы не можете отвечать на сообщения
Вы не можете редактировать свои сообщения
Вы не можете удалять свои сообщения
Вы не можете голосовать в опросах
Вы не можете прикреплять файлы к сообщениям
Вы не можете скачивать файлы