Битва проклятых / Battle of the Damned (Кристофер Хаттон / Christopher Hatton) [2013, США, Сингапур, Фантастика, Боевик, Приключения, BDRip 720p] DVO + Original Eng

Ответить на тему
 
Автор Сообщение

user ®

Стаж: 7 лет 7 месяцев

Сообщений: 20008

Пост Пост: #1 от 09-Авг-2013 17:20

[Цитировать]

Битва проклятых / Battle of the Damned
Страна: США, Сингапур
Жанр: Фантастика, Боевик, Приключения
Год выпуска: 2013
Продолжительность: 01:28:37
Перевод: Любительский (двухголосый закадровый)
Cубтитры: нет
Оригинальная аудиодорожка: английский
Режиссер: Кристофер Хаттон / Christopher Hatton
В ролях: Дольф Лундгрен, Мэтт Доран, Дэвид Филд, Эстебан Куето, Лидия Лук, Мелани Занетти, Ода Мария, Джен Санг Отербридж, Джефф Прюитт, Бродус Мэттисон
Описание: Согласно сюжету, где-то на краю цивилизации тестовая лаборатория лежит в руинах. Из-за досадной ошибки службы безопасности лаборатории произошла катастрофа. Огромное число людей в одночасье превратились в зомби. И лишь небольшая кучка выживших, возглавляемая отважным солдатом Максом Гатлингом, с оружием в руках пробирается сквозь армию мутировавших. Вроде бы, пока все в духе традиционных зомби-хорроров… Однако нашим героям неведома другая смертельная опасность. Из-за все той же аварии на свободе оказались прототипы военных роботов. Хорошо вооруженные, бронированные и чрезвычайно опасные машины по замыслу их создателей должны были в случае непредвиденной ситуации начать немедленную борьбу с живыми мертвецами. Но роботы не были доведены до ума и оказались неспособны отличать обычных людей от зомби.
Сэмпл: http://multi-up.com/892018
Тип релиза: BDRip 720p
Контейнер: MKV
Видео: 1280 x 720,6 292 Kbps,23.976 fps,16:9
Аудио: AC3, 48,0 КHz, 5.1, 448 Kbit/s - Русский
Аудио 2: DTS, 48,0 КHz, 5.1, 755 Kbit/s - Aнглийский

MediaInfo

General
Unique ID : 182781253482001425018772236752117774392 (0x898263914494294E91EB125A1A233838)
Complete name : G:\торенты\Битва проклятых.2013.BDRip.720p.mkv
Format : Matroska
Format version : Version 2
File size : 4.65 GiB
Duration : 1h 28mn
Overall bit rate : 7 504 Kbps
Encoded date : UTC 2013-08-06 16:26:20
Writing application : mkvmerge v5.7.0 ('The Whirlwind') built on Jul 8 2012 20:08:51
Writing library : libebml v1.2.3 + libmatroska v1.3.0
Video
ID : 1
Format : AVC
Format/Info : Advanced Video Codec
Format profile : High@L4.1
Format settings, CABAC : Yes
Format settings, ReFrames : 5 frames
Muxing mode : Header stripping
Codec ID : V_MPEG4/ISO/AVC
Duration : 1h 28mn
Bit rate : 6 292 Kbps
Width : 1 280 pixels
Height : 720 pixels
Display aspect ratio : 16:9
Frame rate mode : Constant
Frame rate : 23.976 fps
Color space : YUV
Chroma subsampling : 4:2:0
Bit depth : 8 bits
Scan type : Progressive
Bits/(Pixel*Frame) : 0.285
Stream size : 3.80 GiB (82%)
Writing library : x264 core 133 r2334 a3ac64b
Encoding settings : cabac=1 / ref=5 / deblock=1:0:0 / analyse=0x3:0x133 / me=umh / subme=7 / psy=1 / psy_rd=1.00:0.00 / mixed_ref=1 / me_range=16 / chroma_me=1 / trellis=1 / 8x8dct=1 / cqm=0 / deadzone=21,11 / fast_pskip=0 / chroma_qp_offset=-2 / threads=18 / lookahead_threads=3 / sliced_threads=0 / nr=0 / decimate=1 / interlaced=0 / bluray_compat=0 / constrained_intra=0 / bframes=3 / b_pyramid=2 / b_adapt=2 / b_bias=0 / direct=3 / weightb=1 / open_gop=0 / weightp=2 / keyint=250 / keyint_min=23 / scenecut=40 / intra_refresh=0 / rc_lookahead=50 / rc=2pass / mbtree=1 / bitrate=6292 / ratetol=1.0 / qcomp=0.60 / qpmin=0 / qpmax=69 / qpstep=4 / cplxblur=20.0 / qblur=0.5 / ip_ratio=1.40 / aq=1:1.00
Language : English
Default : Yes
Forced : No
Audio #1
ID : 2
Format : AC-3
Format/Info : Audio Coding 3
Mode extension : CM (complete main)
Format settings, Endianness : Big
Muxing mode : Header stripping
Codec ID : A_AC3
Duration : 1h 28mn
Bit rate mode : Constant
Bit rate : 448 Kbps
Channel(s) : 6 channels
Channel positions : Front: L C R, Side: L R, LFE
Sampling rate : 48.0 KHz
Bit depth : 16 bits
Compression mode : Lossy
Stream size : 284 MiB (6%)
Default : Yes
Forced : Yes
Audio #2
ID : 3
Format : DTS
Format/Info : Digital Theater Systems
Mode : 16
Format settings, Endianness : Big
Muxing mode : Header stripping
Codec ID : A_DTS
Duration : 1h 28mn
Bit rate mode : Constant
Bit rate : 768 Kbps
Channel(s) : 6 channels
Channel positions : Front: L C R, Side: L R, LFE
Sampling rate : 48.0 KHz
Bit depth : 24 bits
Compression mode : Lossy
Stream size : 487 MiB (10%)
Language : English
Default : No
Forced : No

Скриншоты

Скачать

Скачать торрент!

Как скачивать? · Что такое торрент? · Рейтинг и ограничения

Сайт не распространяет и не хранит электронные версии произведений, а лишь предоставляет доступ к создаваемому пользователями каталогу ссылок на торрент-файлы, которые содержат только списки хеш-сумм

[Профиль] [ЛС]
Показать сообщения:    
Ответить на тему

Текущее время: Сегодня 18:11

Часовой пояс: GMT + 4



Вы не можете начинать темы
Вы не можете отвечать на сообщения
Вы не можете редактировать свои сообщения
Вы не можете удалять свои сообщения
Вы не можете голосовать в опросах
Вы не можете прикреплять файлы к сообщениям
Вы не можете скачивать файлы