Ночь / The Night (Антон Борода) [2013, Россия, Арт-хаус, HDTVRip] + Original Rus

Ответить на тему
 
Автор Сообщение

user ®

Стаж: 7 лет 7 месяцев

Сообщений: 20008

Пост Пост: #1 от 09-Авг-2013 02:35

[Цитировать]

Ночь / The Night
Страна: Россия
Жанр: Арт-хаус
Год выпуска: 2013
Продолжительность: 00:09:02
Перевод: Не требуется
Cубтитры: нет
Оригинальная аудиодорожка: русский
Режиссер: Антон Борода
В ролях: Сергей Васильев
Описание: Когда остаешся один в темноте, начинаешь размышлять о том, кто ты есть на самом деле...
Доп. информация: Студия: Sage Pictures
Качество видео: HDTVRip
Формат видео: MP4
Видео: MPEG4 (H.264), ~20011 Kbps, 24 fps, 1920x1080
Аудио: Русский AAC 320 kb/s (Stereo)

MediaInfo

General
Complete name : E:\Мысли\Shoots\Ночь.mp4
Format : MPEG-4
Codec ID : M4V
File size : 1.28 GiB
Duration : 9mn 2s
Overall bit rate mode : Variable
Overall bit rate : 20.3 Mbps
Encoded date : UTC 2013-07-15 20:41:42
Tagged date : UTC 2013-07-15 20:42:05
©TIM : 00:00:00:00
©TSC : 24
©TSZ : 1
Video #1
ID : 1
Format : AVC
Format/Info : Advanced Video Codec
Format profile : Main@L5.1
Format settings, CABAC : No
Format settings, ReFrames : 2 frames
Codec ID : avc1
Codec ID/Info : Advanced Video Coding
Duration : 9mn 2s
Source duration : 9mn 2s
Bit rate mode : Variable
Bit rate : 20.0 Mbps
Width : 1 920 pixels
Height : 1 080 pixels
Display aspect ratio : 16:9
Frame rate mode : Variable
Frame rate : 24.000 fps
Minimum frame rate : 24.000 fps
Maximum frame rate : 24.024 fps
Standard : NTSC
Color space : YUV
Chroma subsampling : 4:2:0
Bit depth : 8 bits
Scan type : Progressive
Bits/(Pixel*Frame) : 0.402
Stream size : 1.26 GiB (98%)
Source stream size : 1.26 GiB (98%)
Language : English
Encoded date : UTC 2013-07-15 20:41:42
Tagged date : UTC 2013-07-15 20:41:42
mdhd_Duration : 542417
Audio #2
ID : 2
Format : AAC
Format/Info : Advanced Audio Codec
Format profile : LC
Codec ID : 40
Duration : 9mn 2s
Source duration : 9mn 2s
Bit rate mode : Variable
Bit rate : 317 Kbps
Maximum bit rate : 398 Kbps
Channel(s) : 2 channels
Channel positions : Front: L R
Sampling rate : 48.0 KHz
Compression mode : Lossy
Stream size : 20.5 MiB (2%)
Source stream size : 20.5 MiB (2%)
Language : English
Encoded date : UTC 2013-07-15 20:41:42
Tagged date : UTC 2013-07-15 20:41:42
mdhd_Duration : 542464

Скриншот c названием фильма

Скриншоты

Скачать

Скачать торрент!

Как скачивать? · Что такое торрент? · Рейтинг и ограничения

Сайт не распространяет и не хранит электронные версии произведений, а лишь предоставляет доступ к создаваемому пользователями каталогу ссылок на торрент-файлы, которые содержат только списки хеш-сумм

[Профиль] [ЛС]
Показать сообщения:    
Ответить на тему

Текущее время: Сегодня 09:49

Часовой пояс: GMT + 4



Вы не можете начинать темы
Вы не можете отвечать на сообщения
Вы не можете редактировать свои сообщения
Вы не можете удалять свои сообщения
Вы не можете голосовать в опросах
Вы не можете прикреплять файлы к сообщениям
Вы не можете скачивать файлы