Разборка / Showdown / Royal Fist / Tian wang quan (Дин Шаньси / Ting Shan-Hsi) [1972, Гонконг, Тайвань, боевые искусства, VHSRip] VO (Jet)

Ответить на тему
 
Автор Сообщение

user ®

Стаж: 11 лет

Сообщений: 15151

Пост Пост: #1 от 08-Авг-2013 23:25

[Цитировать]

Разборка / Showdown
Страна: Гонконг, Тайвань
Жанр: боевые искусства
Год выпуска: 1972
Продолжительность: 01:17:10
Перевод: Одноголосый закадровый Jet
Cубтитры: нет
Режиссер: Дин Шаньси / Ting Shan-Hsi
В ролях: Джимми Ван Юй, Чжан Цинцин, Кун Бань, Лу Ди, Фу Бихуэй, Чэнь Хуэйлоу, Хэ Фучжэнь, Шань Мао
Описание: Молодой парень Сяо Чин ищет убийц своего отца. Затянувшиеся поиски приводят его в горы, в дом семьи Тан.Глава семьи Тан - Тан Сун когда то изучал кунг фу вместе с отцом Сяо, а его дочь Син Йен дружила с Сяо в детстве. Не долго думая Сяо Чин женится на Син Йен и ему открывают ужасную тайну. Все в семье Тан от мала до велика хорошо владеют кунг-фу, а руководит ими старая бабулька, приказы которой выполняются беспрекословно. А занимаются они не совсем праведными делами: грабят проезжающих мимо путников. И что самое страшное - пути назад у Сяо нет. Он вошел в семью Тан, а выйти из неё можно только сыграв в ящик... (В. Береговых)
Благодарность: За исходник, перевод, озвучивание и описание благодарность выражается Виктору Береговых (Jet).
Сэмпл: http://multi-up.com/892208
Качество видео: VHSRip
Формат видео: AVI
Видео: 704x272 (2.59:1), 25 fps, XviD build 50 ~2396 kbps avg, 0.50 bit/pixel
Аудио: 48 kHz, MPEG Layer 3, 2 ch, ~128.00 kbps avg

MediaInfo

Format : AVI
Format/Info : Audio Video Interleave
File size : 1,37 Гбайт
Duration : 1 ч. 17 м.
Overall bit rate : 2535 Кбит/сек
Writing application : VirtualDubMod 1.5.10.3 | www.virtualdub-fr.org || (build 2550/release)
Writing library : VirtualDubMod build 2550/release
Видео
ID : 0
Format : MPEG-4 Visual
Format profile : Advanced Simple@L5
Format settings, BVOP : 2
Format settings, QPel : Нет
Format settings, GMC : Без точки перехода
Format settings, Matrix : Default (MPEG)
Codec ID : XVID
Codec ID/Hint : XviD
Duration : 1 ч. 17 м.
Bit rate : 2397 Кбит/сек
Width : 704 пикселя
Height : 272 пикселя
Display aspect ratio : 2,588
Frame rate : 25,000 кадров/сек
Color space : YUV
Chroma subsampling : 4:2:0
Bit depth : 8 бит
Scan type : Прогрессивная
Compression mode : С потерями
Bits/(Pixel*Frame) : 0.501
Stream size : 1,29 Гбайт (95%)
Writing library : XviD 1.2.1 (UTC 2008-12-04)
Аудио
ID : 1
Format : MPEG Audio
Format version : Version 1
Format profile : Layer 3
Codec ID : 55
Codec ID/Hint : MP3
Duration : 1 ч. 17 м.
Bit rate mode : Постоянный
Bit rate : 128 Кбит/сек
Channel(s) : 2 канала
Sampling rate : 48,0 КГц
Compression mode : С потерями
Stream size : 70,7 Мбайт (5%)
Alignment : Соединение по промежуткам
Interleave, duration : 40 мс. (1,00 видеокадр)
Interleave, preload duration : 504 мс.

Скриншот c названием фильма

Скриншоты

Скачать

Скачать торрент! Разборка / Showdown / Royal Fist / Tian wang quan (Дин Шаньси / Ting Shan-Hsi) [1972, Гонконг, Тайвань, боевые искусства, VHSRip] VO (Jet)

Как скачивать? · Что такое торрент? · Рейтинг и ограничения

Сайт не распространяет и не хранит электронные версии произведений, а лишь предоставляет доступ к создаваемому пользователями каталогу ссылок на торрент-файлы, которые содержат только списки хеш-сумм

[Профиль] [ЛС]
Показать сообщения:    
Ответить на тему

Текущее время: Сегодня 14:43

Часовой пояс: GMT + 4



Вы не можете начинать темы
Вы не можете отвечать на сообщения
Вы не можете редактировать свои сообщения
Вы не можете удалять свои сообщения
Вы не можете голосовать в опросах
Вы не можете прикреплять файлы к сообщениям
Вы не можете скачивать файлы