Бешеный пес и Глори / Mad Dog and Glory (Джон МакНотон / John McNaughton) [1993, США, драма, мелодрама, комедия, криминал, WEB-DL 720p] MVO + DVO (ОРТ) + AVO (Гаврилов) + Original (eng) + Sub (eng)

Ответить на тему
 
Автор Сообщение

user ®

Стаж: 7 лет 7 месяцев

Сообщений: 20008

Пост Пост: #1 от 08-Авг-2013 23:25

[Цитировать]

Бешеный пес и Глори / Mad Dog and Glory«A cop who'd rather be an artist. A mobster who'd rather be a comic. And a woman who'd rather be anywhere but between them.»- Год выхода: 1993
Жанр: драма, мелодрама, комедия, криминал
Страна: США
Продолжительность: 01:36:44
Перевод 1: Профессиональный (многоголосый, закадровый)
Перевод 2: Профессиональный (двухголосый, закадровый) |ОРТ|
Перевод 3: Авторский (одноголосый, закадровый) |Андрей Гаврилов|
Оригинальная аудиодорожка: английская
Субтитры: английские |*srt|-Режиссер: Джон МакНотон / John McNaughton-В ролях: Роберт Де Ниро, Ума Турман, Билл Мюррей, Дэвид Карузо, Майк Старр, Том Таулз, Кэти Бейкер, Дерек Аннансиэйшн, Даг Хара, Ивэн Лайонел-Описание: История робкого полицейского - фотографа Уэйна Добби, в шутку прозванного коллегами Бешеным Псом, и гангстера Фрэнка Мило. Уэйн случайно спасает жизнь Фрэнка, и тот присылает ему в качестве подарка девушку Глори...- -Сэмпл: http://multi-up.com/890283-Качество: WEB-DL 720p [источник: iTunes | ]
Формат: MKV
Видео: 1280x690 at 23.976 fps, MPEG-4 AVC, ~4000 kbps avg
Aудио 1: 48 kHz, AC3 Dolby Digital, 2/0 (L,R) ch, ~192.00 kbps avg |MVO|
Aудио 2: 48 kHz, AC3 Dolby Digital, 2/0 (L,R) ch, ~192.00 kbps avg |DVO, ОРТ|
Aудио 3: 48 kHz, AC3 Dolby Digital, 2/0 (L,R) ch, ~192.00 kbps avg |Гаврилов|
Aудио 4: 48 kHz, AC3 Dolby Digital, 2/0 (L,R) ch, ~192.00 kbps avg |ENG|
-

Media Info

Формат                                   : Matroska
Версия формата                           : Version 4 / Version 2
Размер файла                             : 3,26 Гбайт
Продолжительность                        : 1 ч. 36 м.
Общий поток                              : 4826 Кбит/сек
Дата кодирования                         : UTC 2013-08-02 10:29:20
Программа кодирования                    : mkvmerge v6.3.0 ('You can't stop me!') built on Jun 28 2013 20:09:41
Библиотека кодирования                   : libebml v1.3.0 + libmatroska v1.4.0
Видео
Идентификатор                            : 1
Формат                                   : AVC
Формат/Информация                        : Advanced Video Codec
Профиль формата                          : High@L3.1
Параметр CABAC формата                   : Нет
Параметр ReFrames формата                : 2 кадра
Идентификатор кодека                     : V_MPEG4/ISO/AVC
Продолжительность                        : 1 ч. 36 м.
Битрейт                                  : 3962 Кбит/сек
Ширина                                   : 1280 пикселей
Высота                                   : 690 пикселей
Соотношение сторон                       : 1,85:1
Режим частоты кадров                     : Постоянный
Частота кадров                           : 23,976 кадра/сек
Цветовое пространство                    : YUV
Субдискретизация насыщенности            : 4:2:0
Битовая глубина                          : 8 бит
Тип развёртки                            : Прогрессивная
Бит/(Пиксели*Кадры)                      : 0.187
Размер потока                            : 2,68 Гбайт (82%)
Заголовок                                : Mad.Dog.and.Glory.1993.720p.WEB-DL.HDCLUB
Язык                                     : English
Default                                  : Да
Forced                                   : Нет
Основные цвета                           : BT.709
Характеристики трансфера                 : BT.709
Коэффициенты матрицы                     : BT.709
Аудио #1
Идентификатор                            : 2
Формат                                   : AC-3
Формат/Информация                        : Audio Coding 3
Расширение режима                        : CM (complete main)
Параметр Endianness формата              : Big
Идентификатор кодека                     : A_AC3
Продолжительность                        : 1 ч. 36 м.
Вид битрейта                             : Постоянный
Битрейт                                  : 192 Кбит/сек
Каналы                                   : 2 канала
Расположение каналов                     : Front: L R
Частота                                  : 48,0 КГц
Битовая глубина                          : 16 бит
Метод сжатия                             : С потерями
Размер потока                            : 133 Мбайт (4%)
Заголовок                                : Профессиональный (многоголосый, закадровый) - AC3, 192kbps, 2ch, 48kHz
Язык                                     : Russian
Default                                  : Да
Forced                                   : Нет
Аудио #2
Идентификатор                            : 3
Формат                                   : AC-3
Формат/Информация                        : Audio Coding 3
Расширение режима                        : CM (complete main)
Параметр Endianness формата              : Big
Идентификатор кодека                     : A_AC3
Продолжительность                        : 1 ч. 36 м.
Вид битрейта                             : Постоянный
Битрейт                                  : 192 Кбит/сек
Каналы                                   : 2 канала
Расположение каналов                     : Front: L R
Частота                                  : 48,0 КГц
Битовая глубина                          : 16 бит
Метод сжатия                             : С потерями
Размер потока                            : 133 Мбайт (4%)
Заголовок                                : Профессиональный (многоголосый, закадровый) ОРТ - AC3, 192kbps, 2ch, 48kHz
Язык                                     : Russian
Default                                  : Нет
Forced                                   : Нет
Аудио #3
Идентификатор                            : 4
Формат                                   : AC-3
Формат/Информация                        : Audio Coding 3
Расширение режима                        : CM (complete main)
Параметр Endianness формата              : Big
Идентификатор кодека                     : A_AC3
Продолжительность                        : 1 ч. 36 м.
Вид битрейта                             : Постоянный
Битрейт                                  : 192 Кбит/сек
Каналы                                   : 2 канала
Расположение каналов                     : Front: L R
Частота                                  : 48,0 КГц
Битовая глубина                          : 16 бит
Метод сжатия                             : С потерями
Размер потока                            : 133 Мбайт (4%)
Заголовок                                : Авторский перевод Андрея Гаврилова - AC3, 192kbps, 2ch, 48kHz
Язык                                     : Russian
Default                                  : Нет
Forced                                   : Нет
Аудио #4
Идентификатор                            : 5
Формат                                   : AC-3
Формат/Информация                        : Audio Coding 3
Расширение режима                        : CM (complete main)
Параметр Endianness формата              : Big
Идентификатор кодека                     : A_AC3
Продолжительность                        : 1 ч. 36 м.
Вид битрейта                             : Постоянный
Битрейт                                  : 192 Кбит/сек
Каналы                                   : 2 канала
Расположение каналов                     : Front: L R
Частота                                  : 48,0 КГц
Битовая глубина                          : 16 бит
Метод сжатия                             : С потерями
Размер потока                            : 133 Мбайт (4%)
Заголовок                                : Оригинальная дорожка (English) - AC3, 192kbps, 2ch, 48kHz
Default                                  : Нет
Forced                                   : Нет
Текст
Идентификатор                            : 6
Формат                                   : UTF-8
Идентификатор кодека                     : S_TEXT/UTF8
Идентификатор кодека/Информация          : UTF-8 Plain Text
Язык                                     : English
Default                                  : Нет
Forced                                   : Нет
Меню
00:00:00.000                             : en:“Yo, Mad Dog, You’re Up “(Main Titles)
00:06:25.000                             : en:Crime Scene
00:11:53.000                             : en:A Mysterious Invitation
00:18:21.000                             : en:“Frank the Money Store”
00:24:07.000                             : en:Fast Friends
00:31:21.000                             : en:Glorious Payback
00:39:10.000                             : en:A Family Debt
00:43:14.000                             : en:No Guts, No Glory
00:48:29.000                             : en:Normal Couple
00:54:53.000                             : en:Picture Perfect
01:00:32.000                             : en:“Just A Gigolo”
01:03:10.000                             : en:In The Neighborhood
01:08:09.000                             : en:Not Going Back
01:11:51.000                             : en:Moving Day
01:19:24.000                             : en:Buying a Life
01:24:20.000                             : en:Time to Pay
01:31:42.000                             : en:Going Home
01:33:09.000                             : en:End Titles

Скриншоты

Скачать

Скачать торрент!

Как скачивать? · Что такое торрент? · Рейтинг и ограничения

Сайт не распространяет и не хранит электронные версии произведений, а лишь предоставляет доступ к создаваемому пользователями каталогу ссылок на торрент-файлы, которые содержат только списки хеш-сумм

[Профиль] [ЛС]
Показать сообщения:    
Ответить на тему

Текущее время: Сегодня 02:11

Часовой пояс: GMT + 4



Вы не можете начинать темы
Вы не можете отвечать на сообщения
Вы не можете редактировать свои сообщения
Вы не можете удалять свои сообщения
Вы не можете голосовать в опросах
Вы не можете прикреплять файлы к сообщениям
Вы не можете скачивать файлы