Бит стрит / Beat Street (Стэн Лэтэн / Stan Lathan) [1984, США, драма, музыка, HDTV 1080i] DVO (НТВ+) + AVO (Владимир Королев) + Sub Eng + Original Eng

Ответить на тему
 
Автор Сообщение

user ®

Стаж: 7 лет 7 месяцев

Сообщений: 20008

Пост Пост: #1 от 08-Авг-2013 23:25

[Цитировать]

Бит стрит / Beat Street
Страна: США
Студия: Orion Pictures Corporation
Жанр: Хип-хоп, драма
Год выпуска: 1984
Продолжительность: 01:41:47
Перевод 1: Профессиональный (двухголосый закадровый) НТВ+
Перевод 2: Авторский (одноголосый закадровый) Владимир Королев
Cубтитры: английские
Оригинальная аудиодорожка: английский
Режиссер: Стэн Лэтэн / Stan Lathan
В ролях: Энди Б. Бэд (Andy B. Bad), Африка Бамбаатаа (Afrika Bambaataa), Роберт Тэйлор (Robert Taylor), Фаст Брейк (Fast Break), Тина Б. (Tina B.), Бак Фо (Buck Four), Даг И. Фреш (Doug E. Fresh), Рэй Даун Чонг (Rae Dawn Chong), Гай Дэвис (Guy Davis), Джон Шарди (Jon Chardiet)
Описание: Фильм о хип-хопе. Культовый фильм о хип-хопе, снятый в далеком 1984 году рассказывающий историю нескольких друзей, увлекающихся граффити, брэйком, dj, mc. Живут они в Бронксе, в бедных кварталах, и пытаются при помощи своих увлечений "выбиться в люди".
В этом фильме были сняты главные действующие лица нью-йоркского брейка: 16-летний виртуоз Роберт Тэйлор, группы "Furious Five", "Rocksteady Cru" и "New York City Breakers", а также... один из идеологов движения хип хоп Африка Бамбаатаа, основатель общества брейкеров, рэпперов, скрэтчеров и художников "граффити", превратившегося позднее в организацию "Universal Zulu Nation".

Доп. информация: За дополнительные дороги и субтитры спасибо slabalex
Тип релиза: HDTV 1080i
Контейнер: MKV
Видео: AVC 1920x1080 (16:9)) 25.0fps Bit rate 6787Kbps
Аудио 1: AC3 48.0 KHz 2ch. 192kbps rus
Аудио 2: AC3 48.0 KHz 2ch. 192kbps rus
Аудио 3: AC3 48.0 KHz 2ch. 192kbps eng

MediaInfo

General
Complete name : E:\torrent\Beat Street_HDTV 1080i.mkv
Format : Matroska
File size : 5.34 GiB
Duration : 1h 41mn
Overall bit rate : 7 512 Kbps
Encoded date : UTC 2013-08-06 22:50:04
Writing application : mkvmerge v5.7.0 ('The Whirlwind') built on Jul 8 2012 20:08:51
Writing library : libebml v1.2.3 + libmatroska v1.3.0
Video
ID : 1
Format : AVC
Format/Info : Advanced Video Codec
Format profile : High@L4.0
Format settings, CABAC : Yes
Format settings, ReFrames : 3 frames
Muxing mode : Container profile=Unknown@4.0
Codec ID : V_MPEG4/ISO/AVC
Duration : 1h 41mn
Bit rate : 6 787 Kbps
Width : 1 920 pixels
Height : 1 080 pixels
Display aspect ratio : 16:9
Frame rate : 50.000 fps
Original frame rate : 25.000 fps
Standard : Component
Color space : YUV
Chroma subsampling : 4:2:0
Bit depth : 8 bits
Scan type : Progressive
Bits/(Pixel*Frame) : 0.065
Stream size : 4.83 GiB (90%)
Title : Beat Street_HDTV 1080i
Color primaries : BT.709-5, BT.1361, IEC 61966-2-4, SMPTE RP177
Transfer characteristics : BT.709-5, BT.1361
Matrix coefficients : BT.709-5, BT.1361, IEC 61966-2-4 709, SMPTE RP177
Audio #1
ID : 2
Format : AC-3
Format/Info : Audio Coding 3
Mode extension : CM (complete main)
Codec ID : A_AC3
Duration : 1h 41mn
Bit rate mode : Constant
Bit rate : 192 Kbps
Channel(s) : 2 channels
Channel positions : Front: L R
Sampling rate : 48.0 KHz
Bit depth : 16 bits
Stream size : 140 MiB (3%)
Title : Beat Street_AC3_DVO_NTV+
Language : Russian
Audio #2
ID : 3
Format : AC-3
Format/Info : Audio Coding 3
Mode extension : CM (complete main)
Codec ID : A_AC3
Duration : 1h 41mn
Bit rate mode : Constant
Bit rate : 192 Kbps
Channel(s) : 2 channels
Channel positions : Front: L R
Sampling rate : 48.0 KHz
Bit depth : 16 bits
Stream size : 140 MiB (3%)
Title : Beat Street_AC3_AVO_Vladimir Korolev
Language : Russian
Audio #3
ID : 4
Format : AC-3
Format/Info : Audio Coding 3
Mode extension : CM (complete main)
Codec ID : A_AC3
Duration : 1h 41mn
Bit rate mode : Constant
Bit rate : 192 Kbps
Channel(s) : 2 channels
Channel positions : Front: L R
Sampling rate : 48.0 KHz
Bit depth : 16 bits
Stream size : 140 MiB (3%)
Title : Beat Street_AC3_original eng
Text
ID : 5
Format : UTF-8
Codec ID : S_TEXT/UTF8
Codec ID/Info : UTF-8 Plain Text
Title : Beat Street_sub_eng

Скриншот с названием фильма

Скриншоты

Сравнение с DVD


Скачать

Скачать торрент!

Как скачивать? · Что такое торрент? · Рейтинг и ограничения

Сайт не распространяет и не хранит электронные версии произведений, а лишь предоставляет доступ к создаваемому пользователями каталогу ссылок на торрент-файлы, которые содержат только списки хеш-сумм

[Профиль] [ЛС]
Показать сообщения:    
Ответить на тему

Текущее время: Сегодня 06:28

Часовой пояс: GMT + 4



Вы не можете начинать темы
Вы не можете отвечать на сообщения
Вы не можете редактировать свои сообщения
Вы не можете удалять свои сообщения
Вы не можете голосовать в опросах
Вы не можете прикреплять файлы к сообщениям
Вы не можете скачивать файлы