Расставаясь с девушками / Breaking the Girls (Джеми Бэббит / Jamie Babbit) [2013, США, триллер, криминал, WEB-DLRip] MVO

Ответить на тему
 
Автор Сообщение

user ®

Стаж: 7 лет 7 месяцев

Сообщений: 20008

Пост Пост: #1 от 08-Авг-2013 23:25

[Цитировать]

Расставаясь с девушкамиBreaking the Girls- Страна: США
Жанр: триллер, криминал
Год выпуска: 2013
Продолжительность: 01:26:43-Перевод: Профессиональный (многоголосый, закадровый)
Субтитры: нет
Режиссер: Джеми Бэббит / Jamie Babbit
В ролях: Сэм Андерсон, Шон Эшмор, Агнес Бракнер, Шэнна Коллинз, Маниш Дайал, Кейт Леверинг, Дженнифер Энн Мэсси, Билли Майо, Мелани Мейрон, Тия Сиркар, Джон Стокуэлл, Мадлен Зима-Описание: Сара - амбициозная и симпатичная студентка колледжа Браунинга. У нее уже есть планы на жизнь и будущее. Все меняется, когда у нее появляется новая соседка Алекс - сногсшибательная красотка, которая сразу берет ее под свое крыло. Однажды Алекс полушутя говорит, что они должны убить врагов друг друга. Сара отмахивается, воспринимая предложение как шутку. Но затем кое-кто оказывается мертвым.-

-

Доп. Информация

Сценарий: Марк Дистефано / Mark Distefano, Гвиневер Тёрнер / Guinevere Turner
Продюсер: Кирк д’Амико / Kirk D'Amico, Андреа Сперлинг / Andrea Sperling, Питер Абрамс / Peter Abrams, Эри Хаас / Ari Haas, Роберт Л. Леви / Robert L. Levy
Оператор: Джеффри Валдрон / Jeffrey Waldron
Композитор: Мэтт Мессина / Mateo Messina
Мировая премьера: 22 июня 2013
-Качество: WEB-DLRip
Контейнер: AVI
Видео: XviD, 720x400 (16:9), 2014 kbps, 23,976 fps, 0,292 bpp
Аудио №1: Russian: AC3 / 2.0 / 48 kHz / 192 kbps / 16 bit
Аудио №2: English: AC3 / 2.0 / 48 kHz / 192 kbps / 16 bit-

Media Info

General
Complete name : G:\Rasstavayas.s.devushkami.2013.P.WEBDLRip.avi
Format : AVI
Format/Info : Audio Video Interleave
File size : 1.46 GiB
Duration : 1h 26mn
Overall bit rate : 2 413 Kbps
Writing application : VirtualDubMod 1.5.10.2 (build 2540/release)
Writing library : VirtualDubMod build 2540/release
Video
ID : 0
Format : MPEG-4 Visual
Format profile : Advanced Simple@L5
Format settings, BVOP : 2
Format settings, QPel : No
Format settings, GMC : No warppoints
Format settings, Matrix : Default (MPEG)
Codec ID : XVID
Codec ID/Hint : XviD
Duration : 1h 26mn
Bit rate : 2 015 Kbps
Width : 720 pixels
Height : 400 pixels
Display aspect ratio : 16:9
Frame rate : 23.976 fps
Color space : YUV
Chroma subsampling : 4:2:0
Bit depth : 8 bits
Scan type : Progressive
Compression mode : Lossy
Bits/(Pixel*Frame) : 0.292
Stream size : 1.22 GiB (83%)
Writing library : XviD 1.2.1 (UTC 2008-12-04)
Audio #1
ID : 1
Format : AC-3
Format/Info : Audio Coding 3
Mode extension : CM (complete main)
Codec ID : 2000
Duration : 1h 26mn
Bit rate mode : Constant
Bit rate : 192 Kbps
Channel(s) : 2 channels
Channel positions : Front: L R
Sampling rate : 48.0 KHz
Bit depth : 16 bits
Compression mode : Lossy
Stream size : 119 MiB (8%)
Alignment : Split accross interleaves
Interleave, duration : 42 ms (1.00 video frame)
Interleave, preload duration : 500 ms
Audio #2
ID : 2
Format : AC-3
Format/Info : Audio Coding 3
Mode extension : CM (complete main)
Codec ID : 2000
Duration : 1h 26mn
Bit rate mode : Constant
Bit rate : 192 Kbps
Channel(s) : 2 channels
Channel positions : Front: L R
Sampling rate : 48.0 KHz
Bit depth : 16 bits
Compression mode : Lossy
Stream size : 119 MiB (8%)
Alignment : Split accross interleaves
Interleave, duration : 42 ms (1.00 video frame)
Interleave, preload duration : 500 ms

Скриншот с названием фильма

Скриншоты

Скачать

Скачать торрент!

Как скачивать? · Что такое торрент? · Рейтинг и ограничения

Сайт не распространяет и не хранит электронные версии произведений, а лишь предоставляет доступ к создаваемому пользователями каталогу ссылок на торрент-файлы, которые содержат только списки хеш-сумм

[Профиль] [ЛС]
Показать сообщения:    
Ответить на тему

Текущее время: Сегодня 21:23

Часовой пояс: GMT + 4



Вы не можете начинать темы
Вы не можете отвечать на сообщения
Вы не можете редактировать свои сообщения
Вы не можете удалять свои сообщения
Вы не можете голосовать в опросах
Вы не можете прикреплять файлы к сообщениям
Вы не можете скачивать файлы