Файр / Fyre (Ричард Гранд / Richard Grand) [1979, США, драма, HDTV 1080i] DVO (НТВ+)

Ответить на тему
 
Автор Сообщение

user ®

Стаж: 7 лет 9 месяцев

Сообщений: 20008

Пост Пост: #1 от 08-Авг-2013 17:30

[Цитировать]

Файр / Fyre
Страна: США
Студия: Fyre Productions
Жанр: драма
Год выпуска: 1979
Продолжительность: 01:26:20
Перевод: Профессиональный (двухголосый закадровый) НТВ+
Cубтитры: нет
Оригинальная аудиодорожка: нет
Режиссер: Ричард Гранд / Richard Grand
В ролях: Аллен Гарфилд, Линн Тил, Френк Сиверо, Том Бейкер, Кэл Хэйнс, Брюс Кирби, Донна Уилкс, Шерил Мари Дженсен, Мэг Галлахер, Рон Томас, Джек Андреоцци, Джон Ян Якобс, Линдсей Фриман…
Описание: Драматическая история девушки Файр, над которой во время свидания со своим парнем надругались два отморозка, а на следующий день в автокатастрофе, во время поездки на пикник, погибла вся её семья…

Тип релиза: HDTV 1080i
Контейнер: TS
Видео: AVC 1920x1080 (16:9)) 25.0fps Bit rate 5601Kbps
Аудио: AC3 48.0 KHz 2ch. 192kbps rus

MediaInfo

General
ID : 1
Complete name : E:\torrent\Fyre_HDTV 1080i.ts
Format : MPEG-TS
File size : 3.68 GiB
Duration : 1h 26mn
Overall bit rate : 6 096 Kbps
Maximum Overall bit rate : 35.5 Mbps
Video
ID : 4113 (0x1011)
Menu ID : 1 (0x1)
Format : AVC
Format/Info : Advanced Video Codec
Format profile : High@L4.0
Format settings, CABAC : Yes
Format settings, ReFrames : 3 frames
Format settings, GOP : M=1, N=64
Duration : 1h 26mn
Bit rate mode : Variable
Bit rate : 5 601 Kbps
Maximum bit rate : 40.0 Mbps
Width : 1 920 pixels
Height : 1 080 pixels
Display aspect ratio : 16:9
Frame rate : 25.000 fps
Standard : Component
Color space : YUV
Chroma subsampling : 4:2:0
Bit depth : 8 bits
Scan type : Interlaced
Scan order : Top Field First
Bits/(Pixel*Frame) : 0.108
Stream size : 3.38 GiB (92%)
Color primaries : BT.709-5, BT.1361, IEC 61966-2-4, SMPTE RP177
Transfer characteristics : BT.709-5, BT.1361
Matrix coefficients : BT.709-5, BT.1361, IEC 61966-2-4 709, SMPTE RP177
Audio
ID : 4352 (0x1100)
Menu ID : 1 (0x1)
Format : AC-3
Format/Info : Audio Coding 3
Mode extension : CM (complete main)
Duration : 1h 26mn
Bit rate mode : Constant
Bit rate : 192 Kbps
Channel(s) : 2 channels
Channel positions : Front: L R
Sampling rate : 48.0 KHz
Bit depth : 16 bits
Stream size : 119 MiB (3%)

Скриншот с названием фильма

Скриншоты


Скачать

Скачать торрент!

Как скачивать? · Что такое торрент? · Рейтинг и ограничения

Сайт не распространяет и не хранит электронные версии произведений, а лишь предоставляет доступ к создаваемому пользователями каталогу ссылок на торрент-файлы, которые содержат только списки хеш-сумм

[Профиль] [ЛС]
Показать сообщения:    
Ответить на тему

Текущее время: Сегодня 21:16

Часовой пояс: GMT + 4



Вы не можете начинать темы
Вы не можете отвечать на сообщения
Вы не можете редактировать свои сообщения
Вы не можете удалять свои сообщения
Вы не можете голосовать в опросах
Вы не можете прикреплять файлы к сообщениям
Вы не можете скачивать файлы