Гаргульи: Герои проснулись / Gargoyles: The Movie - The Heroes Awaken (Казуо Терада / Kazuo Terada, Сабуро Хашимото / Saburo Hashimoto, Такамитсу Кавамура / Takamitsu Kawamura) [1994, Фантастика, фэнтези, приключения, VHSRip] AVO (Иванов)

Ответить на тему
 
Автор Сообщение

user ®

Стаж: 11 лет

Сообщений: 15145

Пост Пост: #1 от 08-Авг-2013 14:20

[Цитировать]


Гаргульи: Герои проснулись
Gargoyles: The Movie - The Heroes Awaken
Страна: США
Жанр: Фантастика, фэнтези, приключения
Продолжительность: 01:18:26
Год выпуска: 1994
Перевод: Авторский (одноголосый закадровый: Михаил Иванов)-Режиссёр: Казуо Терада /Kazuo Terada/, Сабуро Хашимото /Saburo Hashimoto/, Такамитсу Кавамура /Takamitsu Kawamura/
Роли озвучивали: Кит Дэвид /Keith David/, Салли Ричардсон /Salli Richardson/, Марина Сиртис /Marina Sirtis/, Джонатан Фрейкс /Jonathan Frakes/, Джефф Беннетт /Jeff Bennett/, Фрэнк Уэлкер /Frank Welker/, Эдвард Эснер /Edward Asner/, Билл Фагербакки /Bill Fagerbakke/, Том Адкокс-Эрнандес /Thom Adcox-Hernandez/-Описание: Гаргульи - древняя раса существ, живущих ночью и обращающихся в камень при свете дня. В 994 году гаргульи шотландского замка Уиверн были преданы и проклятьем обращены в камень на 1000 лет. Пробудившись ото сна в Нью-Йорке 1994 года они оказываются в неизведанном мире, полным технологически чудес и невиданных опасностей. Лишь одно остается неизменным - человеческое коварство.-Доп. информация:
  • Полнометражный мультфильм "Герои проснулись" представляет собой компиляцию первых пяти серий мультсериала "Гаргульи" с измененным монтажом и саундтреком.
  • Мультфильм был издан на видеокассетах в комплекте с интерактивной настольной игрой. В качестве промо-материалов на различных кассетах были выпущены трейлер и интервью с актерами.
  • Когда идею сериала предлагали "Диснею", он подавался как комедийное шоу о гаргульях из плоти и крови. Но гаргульи в нем были не благородными защитниками, а озорными бедокурами, которые выводили из себя людей. Эта идея претерпела несколько изменений, прежде чем уступить место существующей серьезной версии. © imdb
  • Изначально фамилия Элисы была Чавез. Когда на роль Элисы взяли актрису Салли Ричардсон, на смену латинским корням героини пришли африкано-американские и индейские. © imdb
- - -Качество: VHSRip
Формат: AVI
Видео: 640x480 (1.33:1), 25 fps, XviD build 65 ~1130 kbps avg, 0.15 bit/pixel
Аудио: 48 kHz, AC3 Dolby Digital, 2/0 (L,R) ch, ~192.00 kbps avg
Сэмпл: http://multi-up.com/892064

Подробные технические данные

GeneralComplete name : F:\Gargoyles The Movie - The Heroes Awaken.aviFormat : AVIFormat/Info : Audio Video InterleaveFile size : 747 MiBDuration : 1h 18mnOverall bit rate : 1 332 KbpsWriting application : VirtualDubMod 1.5.10.2 (build 2540/release)Writing library : VirtualDubMod build 2540/releaseCopyright : © 2013 FilmStore GroupIENC : FilmStore Group
VideoID : 0Format : MPEG-4 VisualFormat profile : Advanced Simple@L5Format settings, BVOP : 2Format settings, QPel : NoFormat settings, GMC : No warppointsFormat settings, Matrix : CustomCodec ID : XVIDCodec ID/Hint : XviDDuration : 1h 18mnBit rate : 1 130 KbpsWidth : 640 pixelsHeight : 480 pixelsDisplay aspect ratio : 4:3Frame rate : 25.000 fpsColor space : YUVChroma subsampling : 4:2:0Bit depth : 8 bitsScan type : ProgressiveCompression mode : LossyBits/(Pixel*Frame) : 0.147Stream size : 634 MiB (85%)Writing library : XviD 65
AudioID : 1Format : AC-3Format/Info : Audio Coding 3Mode extension : CM (complete main)Format settings, Endianness : BigCodec ID : 2000Duration : 1h 18mnBit rate mode : ConstantBit rate : 192 KbpsChannel(s) : 2 channelsChannel positions : Front: L RSampling rate : 48.0 KHzBit depth : 16 bitsCompression mode : LossyStream size : 108 MiB (14%)Alignment : Split accross interleavesInterleave, duration : 40 ms (1.00 video frame)Interleave, preload duration : 500 ms
-
Скачать

Скачать торрент! Гаргульи: Герои проснулись / Gargoyles: The Movie - The Heroes Awaken (Казуо Терада / Kazuo Terada, Сабуро Хашимото / Saburo Hashimoto, Такамитсу Кавамура / Takamitsu Kawamura) [1994, Фантастика, фэнтези, приключения, VHSRip] AVO (Иванов)

Как скачивать? · Что такое торрент? · Рейтинг и ограничения

Сайт не распространяет и не хранит электронные версии произведений, а лишь предоставляет доступ к создаваемому пользователями каталогу ссылок на торрент-файлы, которые содержат только списки хеш-сумм

[Профиль] [ЛС]

kantico

Стаж: 5 лет 7 месяцев

Сообщений: 1

Пост Пост: #2 от 15-Авг-2015 05:30 (спустя 2 года)

[Цитировать]

please share
[Профиль] [ЛС]
Показать сообщения:    
Ответить на тему

Текущее время: Сегодня 19:21

Часовой пояс: GMT + 4



Вы не можете начинать темы
Вы не можете отвечать на сообщения
Вы не можете редактировать свои сообщения
Вы не можете удалять свои сообщения
Вы не можете голосовать в опросах
Вы не можете прикреплять файлы к сообщениям
Вы не можете скачивать файлы