Храбрая сердцем / Brave (Марк Эндрюс, Бренда Чэпман, Стив Пурселл / Mark Andrews, Brenda Chapman, Steve Purcell) [2012, мультфильм, фэнтези, комедия, приключения, семейный, BDRip] Dub

Ответить на тему
 
Автор Сообщение

user ®

Стаж: 12 лет

Сообщений: 15110

Пост Пост: #1 от 08-Авг-2013 14:20

[Цитировать]

Храбрая сердцем / Brave«Change your fate.»- Страна: США
Жанр: мультфильм, фэнтези, комедия, приключения, семейный
Продолжительность: 01:33:37
Год выпуска: 2013
Перевод: Профессиональный (дублированный) |Лицензия|
Субтитры: Отсутствуют-Режиссёр: Марк Эндрюс, Бренда Чэпман, Стив Пурселл / Mark Andrews, Brenda Chapman, Steve Purcell-Роли озвучивали: Келли Макдоналд, Эмма Томпсон, Билли Коннолли, Джули Уолтерс, Робби Колтрейн, Кевин МакКидд, Крэйг Фергюсон, Сэлли Кингхорн, Эйлид Фрайзер, Пейджи Баркер, Стивен Кри, Стив Пурселл, Каллум О’Нилл, Джон Ратценбергер...-Роли дублировали: Лиза Арзамасова, Татьяна Веденеева, Михаил Шуфутинский, Александр Аравушкин, Александр Ромашов, Юрий Герцман, Анна Потебня, Василий Ракша, Андрей Матвеев, Анвар Халилулаев-Описание: Испокон веков мифы и легенды окутывают загадочной пеленой живописные отроги Шотландских гор. Искусной лучнице Мериде приходится выбирать свой путь в жизни самостоятельно, и однажды она отказывается следовать древним традициям королевства, бросая вызов могущественным шотландским кланам и их предводителям: нескладному лорду МакГаффину, угрюмому лорду Макинтошу и сварливому лорду Дингволлу. Неосторожные поступки Мериды грозят повергнуть королевство в хаос, и тогда она отправляется за советом к эксцентричной отшельнице, которая вместо помощи накладывает на Мериду опасное заклятье. Юной принцессе предстоит полагаться только на собственную храбрость, чтобы преодолеть могущественное волшебство и победить самого страшного зверя из тех, что водятся в горных долинах.-Личная оценка: 9 из 10- -Качество: BDRip
Формат: AVI
Видео: XviD build 73, 720x304 (2.37:1), 23.976 fps, ~1779 kbps avg, 0.34 bit/pixel
Аудио: AC3 Dolby Digital, 48 kHz, 3/2 (L,C,R,l,r) + LFE ch, ~448 kbps-

Подробные технические данные

ОбщееПолное имя : C:\Users\Admin\Desktop\Загрузки\Brave.2012.BDRip.aviФормат : AVIФормат/Информация : Audio Video InterleaveРазмер файла : 1,46 ГбайтПродолжительность : 1 ч. 33 м.Общий поток : 2237 Кбит/секПрограмма кодирования : VirtualDubModRus 1.5.10.2 (build 2542/release)Библиотека кодирования : VirtualDubMod build 2542/release
ВидеоИдентификатор : 0Формат : MPEG-4 VisualПрофиль формата : Advanced Simple@L5Параметр BVOP формата : 1Параметр QPel формата : НетПараметр GMC формата : Без точки переходаПараметр матрицы формата : ВыборочнаяИдентификатор кодека : XVIDИдентификатор кодека/Подсказка : XviDПродолжительность : 1 ч. 33 м.Битрейт : 1780 Кбит/секШирина : 720 пикселейВысота : 304 пикселяСоотношение сторон : 2,35:1Частота кадров : 23,976 кадра/секЦветовое пространство : YUVСубдискретизация насыщенности : 4:2:0Битовая глубина : 8 битТип развёртки : ПрогрессивнаяМетод сжатия : С потерямиБит/(Пиксели*Кадры) : 0.339Размер потока : 1,16 Гбайт (80%)Библиотека кодирования : XviD 73
АудиоИдентификатор : 1Формат : AC-3Формат/Информация : Audio Coding 3Расширение режима : CM (complete main)Параметр Endianness формата : BigИдентификатор кодека : 2000Продолжительность : 1 ч. 33 м.Вид битрейта : ПостоянныйБитрейт : 448 Кбит/секКаналы : 6 каналовРасположение каналов : Front: L C R, Side: L R, LFEЧастота : 48,0 КГцБитовая глубина : 16 битМетод сжатия : С потерямиРазмер потока : 300 Мбайт (20%)Выравнивание : Разделение по промежуткамПродолжительность промежутка : 42 мс. (1,00 видеокадр)Время предзагрузки промежутка : 500 мс.

Скриншоты

-
Скачать

Скачать торрент! Храбрая сердцем / Brave (Марк Эндрюс, Бренда Чэпман, Стив Пурселл / Mark Andrews, Brenda Chapman, Steve Purcell) [2012, мультфильм, фэнтези, комедия, приключения, семейный, BDRip] Dub

Как скачивать? · Что такое торрент? · Рейтинг и ограничения

Сайт не распространяет и не хранит электронные версии произведений, а лишь предоставляет доступ к создаваемому пользователями каталогу ссылок на торрент-файлы, которые содержат только списки хеш-сумм

[Профиль] [ЛС]
Показать сообщения:    
Ответить на тему

Текущее время: Сегодня 04:42

Часовой пояс: GMT + 4



Вы не можете начинать темы
Вы не можете отвечать на сообщения
Вы не можете редактировать свои сообщения
Вы не можете удалять свои сообщения
Вы не можете голосовать в опросах
Вы не можете прикреплять файлы к сообщениям
Вы не можете скачивать файлы