Моя новая машина / It Takes Two (Дэвид Бейрд / David Beaird) [1988, США, комедия, HDTV 1080i] DVO (НТВ+) + Original Eng

Ответить на тему
 
Автор Сообщение

user ®

Стаж: 7 лет 7 месяцев

Сообщений: 20008

Пост Пост: #1 от 08-Авг-2013 14:20

[Цитировать]

Моя новая машина / It Takes Two
Страна: США
Студия: Robert Lawrence Production
Жанр: комедия
Год выпуска: 1988
Продолжительность: 01:15:30
Перевод: Профессиональный (двухголосый закадровый) НТВ+
Cубтитры: нет
Оригинальная аудиодорожка: английский
Режиссер: Дэвид Бейрд / David Beaird
В ролях: Джордж Ньюберн (George Newbern), Лесли Хоуп (Leslie Hope), Кимберли Фостер (Kimberly Foster), Бэрри Корбин (Barry Corbin), Энтони Джиари (Anthony Geary), Фрэнсис Ли МакКейн (Frances Lee McCain), Пэтрика Дарбо (Patrika Darbo), Марко Перелла (Marco Perella)
Билл Болендер (Bill Bolender), Джерри Биггз (Jerry Biggs)
Описание: Трэвис и Стефани- провинциальные возлюбленные детства, собирающиеся пожениться. Во время подготовки к свадьбе Трэвис уезжает, чтобы купить автомобиль его мечтаний и встречает девушку его мечтаний.

Тип релиза: HDTV 1080i
Контейнер: MKV
Видео: AVC 1920x1080 (16:9)) 25.0fps Bit rate 7221Kbps
Аудио 1: AC3 48.0 KHz 2ch. 192kbps rus
Аудио 2: AC3 48.0 KHz 2ch. 192kbps eng

MediaInfo

General
Complete name : E:\torrent\Moya novaya mashina_HDTV 1080i.mkv
Format : Matroska
File size : 4.09 GiB
Duration : 1h 15mn
Overall bit rate : 7 760 Kbps
Encoded date : UTC 2013-08-07 23:35:36
Writing application : mkvmerge v5.7.0 ('The Whirlwind') built on Jul 8 2012 20:08:51
Writing library : libebml v1.2.3 + libmatroska v1.3.0
Video
ID : 1
Format : AVC
Format/Info : Advanced Video Codec
Format profile : High@L4.0
Format settings, CABAC : Yes
Format settings, ReFrames : 3 frames
Format settings, GOP : M=1, N=2
Muxing mode : Container profile=Unknown@4.0
Codec ID : V_MPEG4/ISO/AVC
Duration : 1h 15mn
Bit rate : 7 221 Kbps
Width : 1 920 pixels
Height : 1 080 pixels
Display aspect ratio : 16:9
Frame rate : 50.000 fps
Original frame rate : 25.000 fps
Standard : Component
Color space : YUV
Chroma subsampling : 4:2:0
Bit depth : 8 bits
Scan type : Interlaced
Scan order : Top Field First
Bits/(Pixel*Frame) : 0.070
Stream size : 3.81 GiB (93%)
Title : It Takes Two_HDTV 1080i
Color primaries : BT.709-5, BT.1361, IEC 61966-2-4, SMPTE RP177
Transfer characteristics : BT.709-5, BT.1361
Matrix coefficients : BT.709-5, BT.1361, IEC 61966-2-4 709, SMPTE RP177
Audio #1
ID : 2
Format : AC-3
Format/Info : Audio Coding 3
Mode extension : CM (complete main)
Codec ID : A_AC3
Duration : 1h 15mn
Bit rate mode : Constant
Bit rate : 192 Kbps
Channel(s) : 2 channels
Channel positions : Front: L R
Sampling rate : 48.0 KHz
Bit depth : 16 bits
Stream size : 104 MiB (2%)
Title : It Takes Two_AC3_DVO_NTV+
Language : Russian
Audio #2
ID : 3
Format : AC-3
Format/Info : Audio Coding 3
Mode extension : CM (complete main)
Codec ID : A_AC3
Duration : 1h 15mn
Bit rate mode : Constant
Bit rate : 192 Kbps
Channel(s) : 2 channels
Channel positions : Front: L R
Sampling rate : 48.0 KHz
Bit depth : 16 bits
Stream size : 104 MiB (2%)
Title : It Takes Two_AC3_original_eng

Скриншот с названием фильма

Скриншоты


Скачать

Скачать торрент!

Как скачивать? · Что такое торрент? · Рейтинг и ограничения

Сайт не распространяет и не хранит электронные версии произведений, а лишь предоставляет доступ к создаваемому пользователями каталогу ссылок на торрент-файлы, которые содержат только списки хеш-сумм

[Профиль] [ЛС]
Показать сообщения:    
Ответить на тему

Текущее время: Сегодня 22:39

Часовой пояс: GMT + 4



Вы не можете начинать темы
Вы не можете отвечать на сообщения
Вы не можете редактировать свои сообщения
Вы не можете удалять свои сообщения
Вы не можете голосовать в опросах
Вы не можете прикреплять файлы к сообщениям
Вы не можете скачивать файлы