Деточки (Дмитрий Астрахан) [2012, социальная драма, криминальный, WEBDLRip-AVC]

Ответить на тему
 
Автор Сообщение

user ®

Стаж: 7 лет 7 месяцев

Сообщений: 20008

Пост Пост: #1 от 08-Авг-2013 14:20

[Цитировать]

Деточки
Страна: Россия, Беларусь
Жанр: социальная драма, криминальный
Год выпуска: 2012
Продолжительность: 01:40:59
Режиссёр: Дмитрий Астрахан
В ролях: Владимир Кабалин, Егор Котов, Диана Запрудская, Миша Каранецкий, Алексей Кузьмин, Максим Райчёнок, Макс Салунди, Андрей Душечкин, Виктор Васильев, Ирина Корниевич, Виталий Новиков, Александр Горошко, Матвей Ядров, Юрий Павлов, Артем Демидко, Алёна Олейникова, Яна Молодова, Илья Ковшер, Саша Толстыко, Валентина Митина, Наталья Капитонова, Артем Бородич, Александр Пашкевич, Олег Ткачев, Елена Андреева, Андрей Ровба, воспитанники детдома № 5 Минска
Описание: Россия, наши дни. В небольшом городке начинают происходить убийства. Жертвы — наркоторговцы, продажные чиновники, подкупленные судьи, депутаты-педофилы. Кто-то явно решил очистить город от зла. Кто же эти "народные мстители"?..

Семпл: http://multi-up.com/888004
Качество видео: WEBDLRip-AVC
Формат видео: MP4
Видео: 854x480 (1.78:1), 25 fps, AVC x264, 800 kbps avg, 0.078 bit/pixel
Аудио: 44,1 kHz, AAC-LC, 2 ch, ~128 kbps

MediaInfo

Полное имя : D:\torrent\Detochki2012.mp4
Формат : MPEG-4
Профиль формата : Base Media
Идентификатор кодека : isom
Размер файла : 648 Мбайт
Продолжительность : 1 ч. 40 м.
Режим общего битрейта : Переменный
Общий поток : 897 Кбит/сек
Программа кодирования : Lavf54.59.106
Видео
Идентификатор : 1
Формат : AVC
Формат/Информация : Advanced Video Codec
Профиль формата : High@L3.0
Параметр CABAC формата : Да
Параметр ReFrames формата : 4 кадра
Идентификатор кодека : avc1
Идентификатор кодека/Информация : Advanced Video Coding
Продолжительность : 1 ч. 40 м.
Битрейт : 800 Кбит/сек
Ширина : 854 пикселя
Высота : 480 пикселей
Соотношение сторон : 16:9
Соотношение сторон в оригинале : 16:9
Режим частоты кадров : Постоянный
Частота кадров : 25,000 кадров/сек
Цветовое пространство : YUV
Субдискретизация насыщенности : 4:2:0
Битовая глубина : 8 бит
Тип развёртки : Прогрессивная
Бит/(Пиксели*Кадры) : 0.078
Размер потока : 576 Мбайт (89%)
Библиотека кодирования : x264 core 129
Настройки программы : cabac=1 / ref=3 / deblock=1:0:0 / analyse=0x3:0x113 / me=hex / subme=7 / psy=1 / psy_rd=1.00:0.00 / mixed_ref=1 / me_range=16 / chroma_me=1 / trellis=1 / 8x8dct=1 / cqm=0 / deadzone=21,11 / fast_pskip=1 / chroma_qp_offset=-2 / threads=24 / lookahead_threads=4 / sliced_threads=0 / nr=0 / decimate=1 / interlaced=0 / bluray_compat=0 / constrained_intra=0 / bframes=3 / b_pyramid=2 / b_adapt=1 / b_bias=0 / direct=1 / weightb=1 / open_gop=0 / weightp=2 / keyint=250 / keyint_min=25 / scenecut=40 / intra_refresh=0 / rc_lookahead=40 / rc=abr / mbtree=1 / bitrate=800 / ratetol=1.0 / qcomp=0.60 / qpmin=0 / qpmax=69 / qpstep=4 / ip_ratio=1.40 / aq=1:1.00
Язык : English
Аудио
Идентификатор : 2
Формат : AAC
Формат/Информация : Advanced Audio Codec
Профиль формата : LC
Идентификатор кодека : 40
Продолжительность : 1 ч. 40 м.
Вид битрейта : Переменный
Битрейт : 93,3 Кбит/сек
Максимальный битрейт : 128 Кбит/сек
Каналы : 2 канала
Расположение каналов : Front: L R
Частота : 44,1 КГц
Метод сжатия : С потерями
Задержка видео : 80 мс.
Размер потока : 67,4 Мбайт (10%)
Язык : English

Скриншот c названием фильма

Скриншоты

Скачать

Скачать торрент!

Как скачивать? · Что такое торрент? · Рейтинг и ограничения

Сайт не распространяет и не хранит электронные версии произведений, а лишь предоставляет доступ к создаваемому пользователями каталогу ссылок на торрент-файлы, которые содержат только списки хеш-сумм

[Профиль] [ЛС]
Показать сообщения:    
Ответить на тему

Текущее время: Сегодня 04:48

Часовой пояс: GMT + 4



Вы не можете начинать темы
Вы не можете отвечать на сообщения
Вы не можете редактировать свои сообщения
Вы не можете удалять свои сообщения
Вы не можете голосовать в опросах
Вы не можете прикреплять файлы к сообщениям
Вы не можете скачивать файлы