Долгая счастливая жизнь (Борис Хлебников) [2013, драма, DVDRip]

Ответить на тему
 
Автор Сообщение

user ®

Стаж: 8 лет

Сообщений: 20008

Пост Пост: #1 от 08-Авг-2013 08:35

[Цитировать]

Долгая счастливая жизнь
Жанр: драма
Год выпуска: 2013
Продолжительность: 01:15:40
Режиссёр: Борис Хлебников
В ролях: Александр Яценко, Анна Котова, Владимир Коробейников, Сергей Наседкин, Евгений Сытый, Глеб Пускепалис, Инна Стерлигова, Александр Алябьев, Сергей Пестриков, Павел Колесников, Денис Ятковский, Валерий Константинов, Михаил Хапчук, Людмила Фамильцева, Андрей Монахов
Описание: Молодой предприниматель Саша поставлен перед выбором: получив компенсацию, мирно расстаться с налаженным хозяйством и уехать в город с любимой девушкой или вступить в опасную борьбу с новыми владельцами, чтобы отстоять права живущих на его земле людей.
Доп. информация: Дата мировой премьеры: 9 февраля 2013
Дата российской премьеры: 11 апреля 2013, «Вольга»
Дата выхода DVD релиза: 18 июля 2013, «Вольга»
Сэмпл: http://multi-up.com/891994
Качество видео: DVDRip
Формат видео: AVI
Видео: XviD, 656x352, 25 fps, 1156 kbps
Аудио: MP3, 2 ch, 48 kHz, 128 kbps

mediainfo

Complete name : D:\Dolgaja.schastlivaja.zhizn.2013.O.DVDRip.700MB.avi
Format : AVI
Format/Info : Audio Video Interleave
File size : 700 MiB
Duration : 1h 15mn
Overall bit rate : 1 294 Kbps
Writing application : VirtualDubMod 1.5.10.3 | www.virtualdub-fr.org || (build 2550/release)
Writing library : VirtualDubMod build 2550/release
Video
ID : 0
Format : MPEG-4 Visual
Format profile : Advanced Simple@L5
Format settings, BVOP : Yes
Format settings, QPel : No
Format settings, GMC : No warppoints
Format settings, Matrix : Default (MPEG)
Muxing mode : Packed bitstream
Codec ID : XVID
Codec ID/Hint : XviD
Duration : 1h 15mn
Bit rate : 1 156 Kbps
Width : 656 pixels
Height : 352 pixels
Display aspect ratio : 1.864
Frame rate : 25.000 fps
Color space : YUV
Chroma subsampling : 4:2:0
Bit depth : 8 bits
Scan type : Progressive
Bits/(Pixel*Frame) : 0.200
Stream size : 626 MiB (89%)
Writing library : XviD 73
Audio
ID : 1
Format : MPEG Audio
Format version : Version 1
Format profile : Layer 3
Codec ID : 55
Codec ID/Hint : MP3
Duration : 1h 15mn
Bit rate mode : Constant
Bit rate : 128 Kbps
Channel(s) : 2 channels
Sampling rate : 48.0 KHz
Stream size : 69.3 MiB (10%)
Alignment : Aligned on interleaves
Interleave, duration : 40 ms (1.00 video frame)
Interleave, preload duration : 504 ms
Writing library : LAME3.99r
Encoding settings : -m s -V 4 -q 2 -lowpass 17 -b 128

Скриншот c названием фильма

Скриншоты

Скачать

Скачать торрент!

Как скачивать? · Что такое торрент? · Рейтинг и ограничения

Сайт не распространяет и не хранит электронные версии произведений, а лишь предоставляет доступ к создаваемому пользователями каталогу ссылок на торрент-файлы, которые содержат только списки хеш-сумм

[Профиль] [ЛС]
Показать сообщения:    
Ответить на тему

Текущее время: Сегодня 10:10

Часовой пояс: GMT + 4



Вы не можете начинать темы
Вы не можете отвечать на сообщения
Вы не можете редактировать свои сообщения
Вы не можете удалять свои сообщения
Вы не можете голосовать в опросах
Вы не можете прикреплять файлы к сообщениям
Вы не можете скачивать файлы