Железный кулак, орлиный коготь / Iron Fist, Eagle Claw / Feng quan dian tui (Ду Лубо / To Lo-Po) [1979, Гонконг, боевые искусства, комедия, DVDRip] VO (Jet)

Ответить на тему
 
Автор Сообщение

user ®

Стаж: 11 лет

Сообщений: 15151

Пост Пост: #1 от 07-Авг-2013 23:30

[Цитировать]

Железный кулак, орлиный коготь / Iron Fist, Eagle Claw / Feng quan dian tui
Страна: Гонконг
Жанр: боевые искусства
Год выпуска: 1979
Продолжительность: 01:24:08
Перевод: Одноголосый закадровый Jet
Cубтитры: нет
Режиссер: Ду Лубо / To Lo-Po
В ролях: Брюс Люн, Чи Куан-Чун, Чан Синг, Филлип Ко, Бу Цяньцзюнь, Лю Юань, Линь Кэмин, Стив Мак
Описание: В небольшом городке У Ли криминальный босс по прозвищу Дракон терроризирует местное население. Честный полицейский Лю Тсе Чун пытается противостоять бандитам и арестовывает одного из подручных Дракона. В отместку Дракон расправляется с семьёй Лю Тсе Чуна и калечит его самого. Местное население окутано страхом, больше никто не решается противостоять бандитам. И тут в дело вступают два местных паренька-самоучки, считающие себя непревзойдёнными мастерами кунг-фу... (В. Береговых)
Благодарность: За исходник, перевод, озвучивание и описание благодарность выражается Виктору Береговых (Jet).
Сэмпл: http://multi-up.com/891930
Качество видео: DVDRip
Формат видео: AVI
Видео: 608x272 (2.24:1), 25 fps, XviD build 50 ~2187 kbps avg, 0.53 bit/pixel
Аудио: 48 kHz, MPEG Layer 3, 2 ch, ~128.00 kbps avg

MediaInfo

Format : AVI
Format/Info : Audio Video Interleave
File size : 1,37 Гбайт
Duration : 1 ч. 24 м.
Overall bit rate : 2326 Кбит/сек
Writing application : VirtualDubMod 1.5.10.3 | www.virtualdub-fr.org || (build 2550/release)
Writing library : VirtualDubMod build 2550/release
Видео
ID : 0
Format : MPEG-4 Visual
Format profile : Advanced Simple@L5
Format settings, BVOP : 1
Format settings, QPel : Нет
Format settings, GMC : Без точки перехода
Format settings, Matrix : Default (MPEG)
Codec ID : XVID
Codec ID/Hint : XviD
Duration : 1 ч. 24 м.
Bit rate : 2188 Кбит/сек
Width : 608 пикселей
Height : 272 пикселя
Display aspect ratio : 2,25:1
Frame rate : 25,000 кадров/сек
Color space : YUV
Chroma subsampling : 4:2:0
Bit depth : 8 бит
Scan type : Прогрессивная
Compression mode : С потерями
Bits/(Pixel*Frame) : 0.529
Stream size : 1,29 Гбайт (94%)
Writing library : XviD 1.2.1 (UTC 2008-12-04)
Аудио
ID : 1
Format : MPEG Audio
Format version : Version 1
Format profile : Layer 3
Codec ID : 55
Codec ID/Hint : MP3
Duration : 1 ч. 24 м.
Bit rate mode : Постоянный
Bit rate : 128 Кбит/сек
Channel(s) : 2 канала
Sampling rate : 48,0 КГц
Compression mode : С потерями
Stream size : 77,0 Мбайт (6%)
Alignment : Соединение по промежуткам
Interleave, duration : 40 мс. (1,00 видеокадр)
Interleave, preload duration : 504 мс.

Скриншот c названием фильма

Скриншоты

Скачать

Скачать торрент! Железный кулак, орлиный коготь / Iron Fist, Eagle Claw / Feng quan dian tui (Ду Лубо / To Lo-Po) [1979, Гонконг, боевые искусства, комедия, DVDRip] VO (Jet)

Как скачивать? · Что такое торрент? · Рейтинг и ограничения

Сайт не распространяет и не хранит электронные версии произведений, а лишь предоставляет доступ к создаваемому пользователями каталогу ссылок на торрент-файлы, которые содержат только списки хеш-сумм

[Профиль] [ЛС]
Показать сообщения:    
Ответить на тему

Текущее время: Сегодня 04:59

Часовой пояс: GMT + 4



Вы не можете начинать темы
Вы не можете отвечать на сообщения
Вы не можете редактировать свои сообщения
Вы не можете удалять свои сообщения
Вы не можете голосовать в опросах
Вы не можете прикреплять файлы к сообщениям
Вы не можете скачивать файлы