Большая свадьба / The Big Wedding (Джастин Закэм / Justin Zackham) [2013, США, комедия, HDRip] Dub

Ответить на тему
 
Автор Сообщение

user ®

Стаж: 7 лет 7 месяцев

Сообщений: 20008

Пост Пост: #1 от 07-Авг-2013 23:30

[Цитировать]

Большая свадьба / The Big Wedding-- Страна: США
Жанр: комедия
Год выпуска: 2013
Продолжительность: 01:29:32
Перевод: Профессиональный (дублированный) (Чистый звук)
Cубтитры: нет
Режиссер: Джастин Закэм / Justin Zackham
В ролях: Роберт Де Ниро, Дайан Китон, Кэтрин Хайгл, Сьюзен Сарандон, Бен Барнс, Аманда Сайфред, Тофер Грейс, Ана Айора, Робин Уильямс, Патриция Рэй
Описание: История о современной семье, пытающейся пережить выходные свадебного торжества, которые могут обернуться полным крахом для них. К всеобщему удивлению своих детей и друзей давно разведенные Дон и Элли Гриффин вынуждены притворяться счастливыми ради свадьбы своего приемного сына, после того как его ультраконсервативная биологическая мать неожиданно решает пролететь через пол мира, чтобы принять участие в этом торжестве…
Сэмпл: http://multi-up.com/891792
Качество видео: HDRip
Формат видео: AVI
Видео кодек: XviD
Аудио кодек: AC3
Видео: 720x304 (2.35:1), 23.976 fps, XviD build 50 ~1728 kbps avg, 0.329 bit/pixel
Аудио: 48 kHz, AC3 Dolby Digital, 3/2 (L,C,R,l,r) LFE ch, ~448 kbps

MediaInfo

General
Complete name : Bolshaja.svadba.2013.D.HDRip.1400MB.avi
Format : AVI
Format/Info : Audio Video Interleave
File size : 1.37 GiB
Duration : 1h 29mn
Overall bit rate : 2 185 Kbps
Movie name : Bolshaja.svadba.2013.D.HDRip.1400MB
Director : СПАМ
Genre : Comedy
Writing application : VirtualDubMod 1.5.10.2 (build 2540/release)
Original source form/Name : Movie
Video
ID : 0
Format : MPEG-4 Visual
Format profile : Advanced Simple@L5
Format settings, BVOP : 2
Format settings, QPel : No
Format settings, GMC : No warppoints
Format settings, Matrix : Default (MPEG)
Codec ID : XVID
Codec ID/Hint : XviD
Duration : 1h 29mn
Bit rate : 1 728 Kbps
Width : 720 pixels
Height : 304 pixels
Display aspect ratio : 2.35:1
Frame rate : 23.976 fps
Color space : YUV
Chroma subsampling : 4:2:0
Bit depth : 8 bits
Scan type : Progressive
Compression mode : Lossy
Bits/(Pixel*Frame) : 0.329
Stream size : 1.08 GiB (79%)
Writing library : XviD 1.2.1 (UTC 2008-12-04)
Audio
ID : 1
Format : AC-3
Format/Info : Audio Coding 3
Mode extension : CM (complete main)
Format settings, Endianness : Big
Codec ID : 2000
Duration : 1h 29mn
Bit rate mode : Constant
Bit rate : 448 Kbps
Channel(s) : 6 channels
Channel positions : Front: L C R, Side: L R, LFE
Sampling rate : 48.0 KHz
Bit depth : 16 bits
Compression mode : Lossy
Stream size : 287 MiB (21%)
Alignment : Split accross interleaves
Interleave, duration : 42 ms (1.00 video frame)
Interleave, preload duration : 500 ms

Скриншоты

Скачать

Скачать торрент!

Как скачивать? · Что такое торрент? · Рейтинг и ограничения

Сайт не распространяет и не хранит электронные версии произведений, а лишь предоставляет доступ к создаваемому пользователями каталогу ссылок на торрент-файлы, которые содержат только списки хеш-сумм

[Профиль] [ЛС]
Показать сообщения:    
Ответить на тему

Текущее время: Сегодня 13:33

Часовой пояс: GMT + 4



Вы не можете начинать темы
Вы не можете отвечать на сообщения
Вы не можете редактировать свои сообщения
Вы не можете удалять свои сообщения
Вы не можете голосовать в опросах
Вы не можете прикреплять файлы к сообщениям
Вы не можете скачивать файлы