Танго ревности / Il tango della gelosia (Стено (Стефано Ванцина) / Steno (Stefano Vanzina)) [1981, Италия, комедия, HDTV 1080i] DVO (НТВ+)

Ответить на тему
 
Автор Сообщение

user ®

Стаж: 7 лет 7 месяцев

Сообщений: 20008

Пост Пост: #1 от 07-Авг-2013 20:25

[Цитировать]

Танго ревности / Il tango della gelosia
Страна: Италия
Студия: Laser, Ypsilon Cinematografica
Жанр: комедия
Год выпуска: 1981
Продолжительность: 01:38:47
Перевод: Профессиональный (двухголосый закадровый) НТВ+
Cубтитры: нет
Оригинальная аудиодорожка: нет
Режиссер: Стено (Стефано Ванцина) / Steno (Stefano Vanzina)
В ролях: Моника Витти (Monica Vitti), Диего Абатантуоно (Diego Abatantuono), Тито ДеЛюк (Tito LeDuc), Дженни Тамбури (Jenny Tamburi), Роберто Леричи (Roberta Lerici), Джанфранко Принчипи (Gianfranco Principi), Джованни Фебраро (Giovanni Febraro)
Описание: После десяти лет брака, Лучия начинает ощущать, что муж ей больше не интересуется. Тогда она решает убедить его, что она ему изменяет...

Тип релиза: HDTV 1080i
Контейнер: TS
Видео: AVC 1920x1080 (16:9)) 25.0fps Bit rate 5549Kbps
Аудио: AC3 48.0 KHz 2ch. 192kbps rus

MediaInfo

General
ID : 1
Complete name : E:\torrent\Tango revnosti_HDTV 1080i.ts
Format : MPEG-TS
File size : 4.17 GiB
Duration : 1h 38mn
Overall bit rate : 6 041 Kbps
Maximum Overall bit rate : 35.5 Mbps
Video
ID : 4113 (0x1011)
Menu ID : 1 (0x1)
Format : AVC
Format/Info : Advanced Video Codec
Format profile : High@L4.0
Format settings, CABAC : Yes
Format settings, ReFrames : 3 frames
Duration : 1h 38mn
Bit rate mode : Variable
Bit rate : 5 549 Kbps
Maximum bit rate : 40.0 Mbps
Width : 1 920 pixels
Height : 1 080 pixels
Display aspect ratio : 16:9
Frame rate : 25.000 fps
Standard : Component
Color space : YUV
Chroma subsampling : 4:2:0
Bit depth : 8 bits
Scan type : Interlaced
Scan order : Top Field First
Bits/(Pixel*Frame) : 0.107
Stream size : 3.83 GiB (92%)
Color primaries : BT.709-5, BT.1361, IEC 61966-2-4, SMPTE RP177
Transfer characteristics : BT.709-5, BT.1361
Matrix coefficients : BT.709-5, BT.1361, IEC 61966-2-4 709, SMPTE RP177
Audio
ID : 4352 (0x1100)
Menu ID : 1 (0x1)
Format : AC-3
Format/Info : Audio Coding 3
Mode extension : CM (complete main)
Duration : 1h 38mn
Bit rate mode : Constant
Bit rate : 192 Kbps
Channel(s) : 2 channels
Channel positions : Front: L R
Sampling rate : 48.0 KHz
Bit depth : 16 bits
Stream size : 136 MiB (3%)

Скриншот с названием фильма

Скриншоты


Скачать

Скачать торрент!

Как скачивать? · Что такое торрент? · Рейтинг и ограничения

Сайт не распространяет и не хранит электронные версии произведений, а лишь предоставляет доступ к создаваемому пользователями каталогу ссылок на торрент-файлы, которые содержат только списки хеш-сумм

[Профиль] [ЛС]
Показать сообщения:    
Ответить на тему

Текущее время: Сегодня 16:35

Часовой пояс: GMT + 4



Вы не можете начинать темы
Вы не можете отвечать на сообщения
Вы не можете редактировать свои сообщения
Вы не можете удалять свои сообщения
Вы не можете голосовать в опросах
Вы не можете прикреплять файлы к сообщениям
Вы не можете скачивать файлы