Транс / Trance (Дэнни Бойл / Danny Boyle) [2013, Великобритания, Франция, Триллер, драма, криминал, детектив, BDRip 1080p] 2х Dub + Original (Eng) + Sub (Rus, Eng)

Ответить на тему
 
Автор Сообщение

user ®

Стаж: 7 лет 7 месяцев

Сообщений: 20008

Пост Пост: #1 от 07-Авг-2013 20:25

[Цитировать]

Транс / Trance«В подсознании. Вне закона»- Страна: Великобритания, Франция
Жанр: Триллер, драма, криминал, детектив
Год выпуска: 2013
Продолжительность: 01:41:19-Перевод 1: Профессиональный (дублированный) [Лицензия BluRay CEE]
Перевод 2: Профессиональный (дублированный) - происхождение неизвестно
Оригинальная аудиодорожка: английский
Cубтитры: русские, английские, румынские-Режиссер: Дэнни Бойл / Danny Boyle
В ролях: Джеймс МакЭвой, Венсан Кассель, Розарио Доусон, Дэнни Сапани, Мэттью Кросс, Вахаб Ахмед Шейх, Марк Полтимор, Таппенс Мидлтон, Саймон Кунц, Майкл Шэйффер-Описание: Аукционер Саймон не в силах противостоять искушению - вступает в сговор с бандой грабителей и организует похищение уникального лота стоимостью в миллионы долларов. Однако налет оканчивается не совсем так, как он предполагал вначале. Аукционера оглушают ударом тупого предмета по голове, в результате которого он теряет какие бы то ни было воспоминания о том, что произошло.- -Тип релиза: BDRip 1080p
Контейнер: MKV
Видео: 1920x800 (2.40:1), 23.976 fps, 12.1 Mbps, 0.330 bits/pixel
Аудио1: Russian: 48.0 kHz, DTS, 3/2 (L,C,R,l,r) + LFE ch, 755 Kbps (6ch)
Аудио2: Russian: 48.0 kHz, AC3, 3/2 (L,C,R,l,r) + LFE ch, 448 Kbps (6ch)
Аудио 3: English: 48.0 kHz, DTS,3/2 (L,C,R,l,r) + LFE ch, 1536 Kbps (6ch)
Формат субтитров: softsub (SRT)
-

MediaInfo

Format : Matroska
Format version : Version 4 / Version 2
File size : 10.7 GiB
Duration : 1h 41mn
Overall bit rate : 15.2 Mbps
Movie name : Trance (2013) - Release for HDCLUB
Encoded date : UTC 2013-08-07 10:03:30
Writing application : mkvmerge v6.1.0 ('Old Devil') built on Mar 2 2013 14:32:37
Writing library : libebml v1.3.0 + libmatroska v1.4.0
Video
ID : 1
Format : AVC
Format/Info : Advanced Video Codec
Format profile : High@L4.1
Format settings, CABAC : Yes
Format settings, ReFrames : 5 frames
Codec ID : V_MPEG4/ISO/AVC
Duration : 1h 41mn
Bit rate : 12.1 Mbps
Width : 1 920 pixels
Height : 800 pixels
Display aspect ratio : 2.40:1
Frame rate : 23.976 fps
Color space : YUV
Chroma subsampling : 4:2:0
Bit depth : 8 bits
Scan type : Progressive
Bits/(Pixel*Frame) : 0.330
Stream size : 8.59 GiB (80%)
Title : x264 @ DON
Writing library : x264 core 135 r2345kMod f0c1c53
Encoding settings : cabac=1 / ref=5 / deblock=1:-3:-3 / analyse=0x3:0x133 / me=umh / subme=11 / psy=1 / fade_compensate=0.00 / psy_rd=0.90:0.00 / mixed_ref=1 / me_range=24 / chroma_me=1 / trellis=2 / 8x8dct=1 / cqm=0 / deadzone=21,11 / fast_pskip=0 / chroma_qp_offset=-2 / threads=3 / lookahead_threads=1 / sliced_threads=0 / nr=0 / decimate=0 / interlaced=0 / bluray_compat=0 / constrained_intra=0 / bframes=8 / b_pyramid=2 / b_adapt=2 / b_bias=0 / direct=3 / weightb=1 / open_gop=0 / weightp=2 / keyint=250 / keyint_min=23 / scenecut=40 / intra_refresh=0 / rc_lookahead=60 / rc=crf / mbtree=0 / crf=17.2000 / qcomp=0.75 / qpmin=0 / qpmax=69 / qpstep=4 / vbv_maxrate=50000 / vbv_bufsize=62500 / crf_max=0.0 / nal_hrd=none / ip_ratio=1.30 / pb_ratio=1.20 / aq=3:0.60
Language : English
Default : No
Forced : No
Audio #1
ID : 2
Format : DTS
Format/Info : Digital Theater Systems
Codec ID : A_DTS
Duration : 1h 41mn
Bit rate mode : Constant
Bit rate : 755 Kbps
Channel(s) : 6 channels
Channel positions : Front: L C R, Side: L R, LFE
Sampling rate : 48.0 KHz
Bit depth : 24 bits
Compression mode : Lossy
Stream size : 547 MiB (5%)
Title : BluRay CEE
Language : Russian
Default : Yes
Forced : No
Audio #2
ID : 3
Format : AC-3
Format/Info : Audio Coding 3
Mode extension : CM (complete main)
Codec ID : A_AC3
Duration : 1h 41mn
Bit rate mode : Constant
Bit rate : 448 Kbps
Channel(s) : 6 channels
Channel positions : Front: L C R, Side: L R, LFE
Sampling rate : 48.0 KHz
Bit depth : 16 bits
Compression mode : Lossy
Stream size : 325 MiB (3%)
Language : Russian
Default : No
Forced : No
Audio #3
ID : 4
Format : DTS
Format/Info : Digital Theater Systems
Format profile : ES
Codec ID : A_DTS
Duration : 1h 41mn
Bit rate mode : Constant
Bit rate : 1 510 Kbps
Channel(s) : 6 channels
Channel positions : Front: L C R, Side: L R, LFE
Sampling rate : 48.0 KHz
Bit depth : 24 bits
Compression mode : Lossy
Stream size : 1.07 GiB (10%)
Title : DTS 5.1@ 1536 kbps
Default : No
Forced : No
Text #1
ID : 5
Format : UTF-8
Codec ID : S_TEXT/UTF8
Codec ID/Info : UTF-8 Plain Text
Title : iTunes
Language : Russian
Default : No
Forced : No
Text #2
ID : 6
Format : UTF-8
Codec ID : S_TEXT/UTF8
Codec ID/Info : UTF-8 Plain Text
Language : Romanian
Default : No
Forced : No
Text #3
ID : 7
Format : UTF-8
Codec ID : S_TEXT/UTF8
Codec ID/Info : UTF-8 Plain Text
Title : Blu-ray
Language : English
Default : No
Forced : No
Text #4
ID : 8
Format : UTF-8
Codec ID : S_TEXT/UTF8
Codec ID/Info : UTF-8 Plain Text
Title : Blu-ray_SDH
Language : English
Default : No
Forced : No
Text #5
ID : 9
Format : UTF-8
Codec ID : S_TEXT/UTF8
Codec ID/Info : UTF-8 Plain Text
Title : Blu-ray_SDH-COLORED
Language : English
Default : No
Forced : No
Menu
00:00:00.000 : en:Chapter 1
00:04:05.871 : en:Chapter 2
00:08:18.832 : en:Chapter 3
00:10:09.859 : en:Chapter 4
00:13:06.786 : en:Chapter 5
00:15:42.650 : en:Chapter 6
00:17:33.678 : en:Chapter 7
00:21:57.274 : en:Chapter 8
00:23:46.634 : en:Chapter 9
00:25:54.720 : en:Chapter 10
00:28:11.398 : en:Chapter 11
00:31:08.533 : en:Chapter 12
00:33:40.644 : en:Chapter 13
00:36:31.272 : en:Chapter 14
00:39:10.723 : en:Chapter 15
00:41:49.340 : en:Chapter 16
00:45:58.881 : en:Chapter 17
00:51:51.483 : en:Chapter 18
00:59:00.287 : en:Chapter 19
01:02:10.894 : en:Chapter 20
01:08:08.584 : en:Chapter 21
01:12:06.822 : en:Chapter 22
01:14:36.138 : en:Chapter 23
01:16:13.152 : en:Chapter 24
01:25:36.548 : en:Chapter 25
01:28:16.291 : en:Chapter 26
01:31:34.781 : en:Chapter 27
01:35:32.769 : en:Chapter 28

Скриншоты

-
Скачать

Скачать торрент!

Как скачивать? · Что такое торрент? · Рейтинг и ограничения

Сайт не распространяет и не хранит электронные версии произведений, а лишь предоставляет доступ к создаваемому пользователями каталогу ссылок на торрент-файлы, которые содержат только списки хеш-сумм

[Профиль] [ЛС]
Показать сообщения:    
Ответить на тему

Текущее время: Сегодня 20:05

Часовой пояс: GMT + 4



Вы не можете начинать темы
Вы не можете отвечать на сообщения
Вы не можете редактировать свои сообщения
Вы не можете удалять свои сообщения
Вы не можете голосовать в опросах
Вы не можете прикреплять файлы к сообщениям
Вы не можете скачивать файлы