Транс / Trance (Дэнни Бойл / Danny Boyle) [2013, триллер, драма, криминал, BDRip] DUB (BD EUR)

Ответить на тему
 
Автор Сообщение

user ®

Стаж: 7 лет 7 месяцев

Сообщений: 20008

Пост Пост: #1 от 07-Авг-2013 20:25

[Цитировать]

Транс / Trance«В подсознании. Вне закона» -
Страна: Великобритания, Франция
Жанр: триллер, драма, криминал, детектив
Год выпуска: 2013
Продолжительность: 01:41:19-Перевод: Профессиональный (дублированный) /Лицензия Blu-Ray EUR/
Cубтитры: нет-Режиссер: Дэнни Бойл / Danny Boyle-В ролях: Джеймс МакЭвой / James McAvoy (Simon), Венсан Кассель / Vincent Cassel (Franck), Розарио Доусон / Rosario Dawson (Elizabeth), Дэнни Сапани / Danny Sapani (Nate), Мэттью Кросс / Matt Cross (Dominic), Вахаб Ахмед Шейх / Wahab Sheikh (Riz), Марк Полтимор / Mark Poltimore (Francis Lemaitre), Таппенс Мидлтон / Tuppence Middleton (Young Woman in Blue Car), Саймон Кунц / Simon Kunz (Surgeon), Майкл Шэйффер / Michael Shaeffer (Security Guard #1), Тони Джайавардена / Tony Jayawardena (Security Guard #2), Винсент Монтуэль / Vincent Montuel (Handsome Waiter)-Описание:
Аукционер Саймон не в силах противостоять искушению - вступает в сговор с бандой грабителей и организует похищение уникального лота стоимостью в миллионы долларов. Однако налет оканчивается не совсем так, как он предполагал вначале. Аукционера оглушают ударом тупого предмета по голове, в результате которого он теряет какие бы то ни было воспоминания о том, что произошло.
- -Качество видео: BDRip /исходник: Trance.2013.LIMITED.COMPLETE.BLURAY-PCH/
Формат видео: AVI-Видео: XviD / 720 x 304 / 2.37:1 / 1598 kbps / 23,976 fps
Аудио: AC3 Dolby Digital / 48 KHz / 448 kbps / 3/2 (L,C,R,l,r) + LFE ch /RUS/-СЭМПЛ-Релиз: -

MediaInfo

General
Complete name : I:\Trans.2013.RUS.BDRip.XviD.AC3.-HQ-ViDEO.avi
Format : AVI
Format/Info : Audio Video Interleave
File size : 1.45 GiB
Duration : 1h 41mn
Overall bit rate : 2 056 Kbps
Movie name : Trance (2013)
Director : Vaippp
Genre : Drama/Thriller
Writing application : VirtualDubModRus 1.5.10.2 (build 2542/release)
Writing library : VirtualDubMod build 2542/release
Original source form/Name : Movie
Copyright : HQ-ViDEO
Comment : BDRip
Video
ID : 0
Format : MPEG-4 Visual
Format profile : Advanced Simple@L5
Format settings, BVOP : 1
Format settings, QPel : No
Format settings, GMC : No warppoints
Format settings, Matrix : Custom
Codec ID : XVID
Codec ID/Hint : XviD
Duration : 1h 41mn
Bit rate : 1 598 Kbps
Width : 720 pixels
Height : 304 pixels
Display aspect ratio : 2.35:1
Frame rate : 23.976 fps
Color space : YUV
Chroma subsampling : 4:2:0
Bit depth : 8 bits
Scan type : Progressive
Compression mode : Lossy
Bits/(Pixel*Frame) : 0.305
Stream size : 1.13 GiB (78%)
Writing library : XviD 73
Audio
ID : 1
Format : AC-3
Format/Info : Audio Coding 3
Mode extension : CM (complete main)
Format settings, Endianness : Big
Codec ID : 2000
Duration : 1h 41mn
Bit rate mode : Constant
Bit rate : 448 Kbps
Channel(s) : 6 channels
Channel positions : Front: L C R, Side: L R, LFE
Sampling rate : 48.0 KHz
Bit depth : 16 bits
Compression mode : Lossy
Stream size : 325 MiB (22%)
Alignment : Split accross interleaves
Interleave, duration : 42 ms (1.00 video frame)
Interleave, preload duration : 500 ms

Скриншоты



Скачать

Скачать торрент!

Как скачивать? · Что такое торрент? · Рейтинг и ограничения

Сайт не распространяет и не хранит электронные версии произведений, а лишь предоставляет доступ к создаваемому пользователями каталогу ссылок на торрент-файлы, которые содержат только списки хеш-сумм

[Профиль] [ЛС]
Показать сообщения:    
Ответить на тему

Текущее время: Сегодня 06:08

Часовой пояс: GMT + 4



Вы не можете начинать темы
Вы не можете отвечать на сообщения
Вы не можете редактировать свои сообщения
Вы не можете удалять свои сообщения
Вы не можете голосовать в опросах
Вы не можете прикреплять файлы к сообщениям
Вы не можете скачивать файлы