Тепло наших тел / Warm Bodies (Джонатан Левин / Jonathan Levine) [2013, США, ужасы, мелодрама, комедия, BDRip 720p] VO (den904)+ Sub Rus,Eng + Original Eng

Ответить на тему
 
Автор Сообщение

user ®

Стаж: 7 лет 7 месяцев

Сообщений: 20008

Пост Пост: #1 от 07-Авг-2013 11:20

[Цитировать]

Тепло наших тел / Warm Bodies Страна: США
Студия: Summit Entertainment, Mandeville Films, Make Movies
Жанр: ужасы, мелодрама, комедия
Год выпуска: 2013
Продолжительность: 01:37:45
Перевод: Одноголосый (закадровый) den904
Cубтитры: русские,английские
Оригинальная аудиодорожка: английский
Режиссер: Джонатан Левин / Jonathan Levine
В ролях: Николас Холт, Тереза Палмер, Аналей Типтон, Роб Кордри, Дэйв Франко, Джон Малкович, Кори Хардрикт, Дэниэл Риндресс-Кей, Винсент Леклерк, Клиффорд ЛеДюк-Вайанкур
Описание: Мир поражен чумой и стоит на грани вымирания. Покойники ходят по земле и норовят употребить в пищу живых, которые, оставшись в катастрофическом меньшинстве, с трудом держат оборону. Перемены начинаются, когда один зомби, чье имя при жизни начиналось на «Р», спасает девушку вместо того, чтобы ее съесть. Дружба, завязавшаяся между представителями враждующих сторон, грозит обоим самыми нехорошими последствиями. Но Р и Джули, сами того не подозревая, держат в руках простой и единственный ключ к спасению гибнущего мира.

Тип релиза: BDRip 720p[CRiSC]
Контейнер: MKV
Исходник:Warm Bodies 2013 1080p Blu-ray AVC DTS-HD MA 7.1-HDWinG
Видео: AVC, 1280x534, 6668 Kbps, 23.976 fps
Аудио 1: Russian: 48 kHz, DTS, 3/2 (L,C,R,l,r) + LFE ch, ~1536.00 kbps avg|den904|
Аудио 2: English: 48 kHz, DTS, 3/2 (L,C,R,l,r) + LFE ch, ~1536.00 kbps |Original|
Аудио 3: English: 48 kHz, AAC 2/0 (L,R) ch, ~83.00 kbps avg |Commentary|
Чаптеры:есть

Доп.информация

Автор работы со звуком: g00ba

x264 log

x264 [info]: profile High, level 4.1
x264 [info]: frame I:1049 Avg QP:14.62 size:115022
x264 [info]: frame P:28110 Avg QP:16.23 size: 61536
x264 [info]: frame B:111481 Avg QP:18.38 size: 27258
x264 [info]: consecutive B-frames: 1.8% 1.9% 8.9% 11.8% 15.4% 36.4% 8.9% 6.8% 2.9% 1.0% 1.4% 1.9% 1.0%
encoded 140640 frames, 3.90 fps, 6667.90 kb/s

MediaInfo

General
Unique ID : 224555334374438753248586507094735846924 (0xA8EFC8C58C9A33139864BE004379FE0C)
Complete name : D:\Warm.Bodies.2013.720p.BluRay.DD5.1.x264-Talian-.mkv
Format : Matroska
Format version : Version 2
File size : 6.67 GiB
Duration : 1h 37mn
Overall bit rate : 9 772 Kbps
Movie name : -Talian-
Encoded date : UTC 2013-08-05 16:58:31
Writing application : mkvmerge v5.7.0 ('The Whirlwind') built on Jul 8 2012 20:08:51
Writing library : libebml v1.2.3 + libmatroska v1.3.0
Video
ID : 1
Format : AVC
Format/Info : Advanced Video Codec
Format profile : High@L4.1
Format settings, CABAC : Yes
Format settings, ReFrames : 12 frames
Codec ID : V_MPEG4/ISO/AVC
Duration : 1h 37mn
Bit rate : 6667 Kbps
Width : 1 280 pixels
Height : 534 pixels
Display aspect ratio : 2.40:1
Frame rate : 23.976 fps
Color space : YUV
Chroma subsampling : 4:2:0
Bit depth : 8 bits
Scan type : Progressive
Title : CRiSC
Writing library : x264 core 133 r2334kMod a3ac64b
Encoding settings : cabac=1 / ref=12 / deblock=1:-3:-3 / analyse=0x3:0x133 / me=tesa / subme=11 / psy=1 / fade_compensate=0.00 / psy_rd=1.00:0.00 / mixed_ref=1 / me_range=24 / chroma_me=1 / trellis=2 / 8x8dct=1 / cqm=0 / deadzone=21,11 / fast_pskip=0 / chroma_qp_offset=-2 / threads=12 / lookahead_threads=3 / sliced_threads=0 / nr=0 / decimate=0 / interlaced=0 / bluray_compat=0 / constrained_intra=0 / bframes=12 / b_pyramid=2 / b_adapt=2 / b_bias=0 / direct=3 / weightb=1 / open_gop=0 / weightp=2 / keyint=250 / keyint_min=23 / scenecut=40 / intra_refresh=0 / rc_lookahead=40 / rc=crf / mbtree=0 / crf=16.6000 / qcomp=0.75 / qpmin=0 / qpmax=69 / qpstep=4 / vbv_maxrate=50000 / vbv_bufsize=62500 / crf_max=0.0 / nal_hrd=none / ip_ratio=1.40 / pb_ratio=1.30 / aq=1:0.60
Language : English
Default : No
Forced : No
Color primaries : BT.709-5, BT.1361, IEC 61966-2-4, SMPTE RP177
Transfer characteristics : BT.709-5, BT.1361
Matrix coefficients : BT.709-5, BT.1361, IEC 61966-2-4 709, SMPTE RP177
Audio #1
ID : 2
Format : DTS
Format/Info : Digital Theater Systems
Codec ID : A_DTS
Duration : 1h 37mn
Bit rate mode : Constant
Bit rate : 1 510 Kbps
Channel(s) : 6 channels
Channel positions : Front: L C R, Side: L R, LFE
Sampling rate : 48.0 KHz
Bit depth : 24 bits
Compression mode : Lossy
Stream size : 1.03 GiB (15%)
Title : VO-den904
Language : Russian
Default : Yes
Forced : No
Audio #2
ID : 3
Format : DTS
Format/Info : Digital Theater Systems
Codec ID : A_DTS
Duration : 1h 37mn
Bit rate mode : Constant
Bit rate : 1 510 Kbps
Channel(s) : 6 channels
Channel positions : Front: L C R, Side: L R, LFE
Sampling rate : 48.0 KHz
Bit depth : 24 bits
Compression mode : Lossy
Stream size : 1.03 GiB (15%)
Title : Original
Language : English
Default : No
Forced : No
Audio #3
ID : 4
Format : AAC
Format/Info : Advanced Audio Codec
Format profile : HE-AAC / LC
Codec ID : A_AAC
Duration : 1h 37mn
Channel(s) : 2 channels
Channel positions : Front: L R
Sampling rate : 48.0 KHz / 24.0 KHz
Compression mode : Lossy
Delay relative to video : 40ms
Title : Commentary AAC 2.0 @ 83 kbps
Language : English
Default : No
Forced : No
Text #1
ID : 5
Format : UTF-8
Codec ID : S_TEXT/UTF8
Codec ID/Info : UTF-8 Plain Text
Title : Sub
Language : Russian
Default : No
Forced : No
Text #2
ID : 6
Format : UTF-8
Codec ID : S_TEXT/UTF8
Codec ID/Info : UTF-8 Plain Text
Title : Sub-SRT
Language : English
Default : No
Forced : No
Menu
00:00:00.000 : en:00:00:00.000
00:06:39.858 : en:00:06:39.858
00:12:24.202 : en:00:12:24.202
00:19:24.580 : en:00:19:24.580
00:24:22.920 : en:00:24:22.920
00:31:17.626 : en:00:31:17.626
00:40:52.408 : en:00:40:52.408
00:45:32.563 : en:00:45:32.563
00:49:56.285 : en:00:49:56.285
00:55:44.091 : en:00:55:44.091
01:02:25.492 : en:01:02:25.492
01:08:49.876 : en:01:08:49.876
01:14:08.861 : en:01:14:08.861
01:17:27.393 : en:01:17:27.393
01:24:00.702 : en:01:24:00.702
01:30:30.759 : en:01:30:30.759

Скриншоты

Source vs Encode


Скачать

Скачать торрент!

Как скачивать? · Что такое торрент? · Рейтинг и ограничения

Сайт не распространяет и не хранит электронные версии произведений, а лишь предоставляет доступ к создаваемому пользователями каталогу ссылок на торрент-файлы, которые содержат только списки хеш-сумм

[Профиль] [ЛС]
Показать сообщения:    
Ответить на тему

Текущее время: Сегодня 12:35

Часовой пояс: GMT + 4



Вы не можете начинать темы
Вы не можете отвечать на сообщения
Вы не можете редактировать свои сообщения
Вы не можете удалять свои сообщения
Вы не можете голосовать в опросах
Вы не можете прикреплять файлы к сообщениям
Вы не можете скачивать файлы