Совместная борьба Дракона и Тигра / The Dragon And Tiger Joint Hands (Юн Цзин Чань / Yeung Jing-Chan) [1973, Тайвань, боевые искусства, DVDRip] VO (Jet)

Ответить на тему
 
Автор Сообщение

user ®

Стаж: 11 лет

Сообщений: 15151

Пост Пост: #1 от 07-Авг-2013 02:25

[Цитировать]

Совместная борьба Дракона и Тигра / The Dragon And Tiger Joint Hands
Страна: Тайвань
Жанр: боевые искусства
Год выпуска: 1973
Продолжительность: 01:23:10-Перевод: Одноголосый закадровый Виктор Береговых (Jet)
Оригинальная аудиодорожка: нет
Субтитры: нет-Режиссер: Юн Цзин Чань / Yeung Jing-Chan-В ролях: Чань Кён, Шут Чун Тинь, Чён Кам, Джек Лун, Чань Сань Ят, Хонь Сю, Мелвин Чён
-
Описание: Китайский город Тун Сян захватили японцы и поставили управлять им своих ставленников из числа местных жителей,которые стали предателями.Возглавил этих негодяев Чень Пяо, который приказал забрать у жителей города весь урожай.Один из патриотов по имени Туй Сай Хань решает избавить город от Чень Пяо.Он просит помощи у лучшего бойца города Чин Сяна, но тот отказывает,мотивируя это тем,что от этого станет только хуже.Когда Чень Пяо убивает учителя одной из школ боевых искусств,терпению Чин Сяна приходит конец.Он объединяет силы с Туй Сай Ханем и они вдвоем решают разобраться и с предателем Чень Пяо и с поработившими их японцами...(В.Береговых)-Релиз группы - -Качество видео: DVDRip (DVD5)
Формат видео: AVI
Видео: XviD, 720x352 (2.05:1), 25 fps¸ 2307 kbps avg, 0.36 bit/pixel
Аудио: Русский MEPG layer 3, 192 kbps

Доп. информация:

Переводчик: Виктор Береговых (Jet)
Рип: Public Enemy (((

MediaInfo

Format : AVI
Format/Info : Audio Video Interleave
File size : 1.46 GiB
Duration : 1h 23mn
Overall bit rate : 2 510 Kbps
Writing application : VirtualDubMod 1.5.10.3 | www.virtualdub-fr.org || (build 2550/release)
Writing library : VirtualDubMod build 2550/release
Video
ID : 0
Format : MPEG-4 Visual
Format profile : Advanced Simple@L5
Format settings, BVOP : 1
Format settings, QPel : No
Format settings, GMC : No warppoints
Format settings, Matrix : Custom
Codec ID : XVID
Codec ID/Hint : XviD
Duration : 1h 23mn
Bit rate : 2 308 Kbps
Width : 720 pixels
Height : 352 pixels
Display aspect ratio : 2.045
Frame rate : 25.000 fps
Color space : YUV
Chroma subsampling : 4:2:0
Bit depth : 8 bits
Scan type : Progressive
Compression mode : Lossy
Bits/(Pixel*Frame) : 0.364
Stream size : 1.34 GiB (92%)
Writing library : XviD 73
Audio
ID : 1
Format : MPEG Audio
Format version : Version 1
Format profile : Layer 3
Codec ID : 55
Codec ID/Hint : MP3
Duration : 1h 23mn
Bit rate mode : Constant
Bit rate : 192 Kbps
Channel(s) : 2 channels
Sampling rate : 48.0 KHz
Compression mode : Lossy
Stream size : 114 MiB (8%)
Alignment : Aligned on interleaves
Interleave, duration : 40 ms (1.00 video frame)
Interleave, preload duration : 504 ms

Скриншоты

Скачать

Скачать торрент! Совместная борьба Дракона и Тигра / The Dragon And Tiger Joint Hands (Юн Цзин Чань / Yeung Jing-Chan) [1973, Тайвань, боевые искусства, DVDRip] VO (Jet)

Как скачивать? · Что такое торрент? · Рейтинг и ограничения

Сайт не распространяет и не хранит электронные версии произведений, а лишь предоставляет доступ к создаваемому пользователями каталогу ссылок на торрент-файлы, которые содержат только списки хеш-сумм

[Профиль] [ЛС]
Показать сообщения:    
Ответить на тему

Текущее время: Сегодня 14:39

Часовой пояс: GMT + 4



Вы не можете начинать темы
Вы не можете отвечать на сообщения
Вы не можете редактировать свои сообщения
Вы не можете удалять свои сообщения
Вы не можете голосовать в опросах
Вы не можете прикреплять файлы к сообщениям
Вы не можете скачивать файлы