10 братьев Шаолиня / 10 Brothers of Shaolin / Shi da di zi (Тинг Чунг / Ting Chung) [1979, Гонконг, боевые искусства, DVDRip] AVO (Сергей Кузнецов)

Ответить на тему
 
Автор Сообщение

user ®

Стаж: 11 лет

Сообщений: 15151

Пост Пост: #1 от 07-Авг-2013 02:25

[Цитировать]

10 братьев Шаолиня / 10 Brothers of Shaolin / Shi da di zi
Страна: Гонконг
Жанр: боевые искусства
Год выпуска: 1979
Продолжительность: 01:26:38-Перевод: Авторский одноголосый Сергей Кузнецов
Оригинальная аудиодорожка: нет
Субтитры: нет-Режиссер: Тинг Чунг / Ting Chung-В ролях: Леунг Ка Ян, Филлип Ко, Ванг Тао, Чанг Йи, Чиа Линг, Вонг Фей-Лунг, Лау Лап-Чо
-
Описание: Разгар правления династии Цин, которая особенно не любила (и эта любовь была взаимной) храм Шаолинь. В храме от властей прячется беглый преступник - один из важных людей в свергнутом правительстве династии Минг, и когда приходит время восстания, его присутствие требуется в стране, дабы поднять людей на войну. Чтобы он спокойно дошел до пункта назначения, ему дают в провожатого одного из лучших бойцов Шаолиня (Ванг Тао), а его девять братьев разбредаются по всему их пути, дабы помогать им отражать многочисленные атаки прихвостней властей.-Релиз группы -- -Качество видео: DVDRip (DVD9)
Формат видео: AVI
Видео: XviD, 720x272 (2.65:1), 25 fps, 2203 kbps avg, 0.45 bit/pixel
Аудио: Русский MEPG layer 3, 192 kbps

Доп. информация:

Рип: Public Enemy (((
Постер: Public Enemy (((

MediaInfo

Format : AVI
Format/Info : Audio Video Interleave
File size : 1.46 GiB
Duration : 1h 26mn
Overall bit rate : 2 405 Kbps
Writing application : VirtualDubMod 1.5.10.3 | www.virtualdub-fr.org || (build 2550/release)
Writing library : VirtualDubMod build 2550/release
Video
ID : 0
Format : MPEG-4 Visual
Format profile : Advanced Simple@L5
Format settings, BVOP : 1
Format settings, QPel : No
Format settings, GMC : No warppoints
Format settings, Matrix : Custom
Codec ID : XVID
Codec ID/Hint : XviD
Duration : 1h 26mn
Bit rate : 2 204 Kbps
Width : 720 pixels
Height : 272 pixels
Display aspect ratio : 2.647
Frame rate : 25.000 fps
Color space : YUV
Chroma subsampling : 4:2:0
Bit depth : 8 bits
Scan type : Progressive
Compression mode : Lossy
Bits/(Pixel*Frame) : 0.450
Stream size : 1.33 GiB (92%)
Writing library : XviD 73
Audio
ID : 1
Format : MPEG Audio
Format version : Version 1
Format profile : Layer 3
Codec ID : 55
Codec ID/Hint : MP3
Duration : 1h 26mn
Bit rate mode : Constant
Bit rate : 192 Kbps
Channel(s) : 2 channels
Sampling rate : 48.0 KHz
Compression mode : Lossy
Stream size : 119 MiB (8%)
Alignment : Aligned on interleaves
Interleave, duration : 40 ms (1.00 video frame)
Interleave, preload duration : 504 ms

Скриншот с названием

Скриншоты

Скачать

Скачать торрент! 10 братьев Шаолиня / 10 Brothers of Shaolin / Shi da di zi (Тинг Чунг / Ting Chung) [1979, Гонконг, боевые искусства, DVDRip] AVO (Сергей Кузнецов)

Как скачивать? · Что такое торрент? · Рейтинг и ограничения

Сайт не распространяет и не хранит электронные версии произведений, а лишь предоставляет доступ к создаваемому пользователями каталогу ссылок на торрент-файлы, которые содержат только списки хеш-сумм

[Профиль] [ЛС]
Показать сообщения:    
Ответить на тему

Текущее время: Сегодня 22:20

Часовой пояс: GMT + 4



Вы не можете начинать темы
Вы не можете отвечать на сообщения
Вы не можете редактировать свои сообщения
Вы не можете удалять свои сообщения
Вы не можете голосовать в опросах
Вы не можете прикреплять файлы к сообщениям
Вы не можете скачивать файлы