Попутчик / The Hitcher (Дэйв Мейерс / Dave Meyers) [2007, США, Триллер, BDRemux 1080p] MVO (х2) + Dub + AVO (Юрий Немахов) + Sub Rus + Original Eng

Ответить на тему
 
Автор Сообщение

user ®

Стаж: 7 лет 7 месяцев

Сообщений: 20008

Пост Пост: #1 от 07-Авг-2013 02:25

[Цитировать]

-Попутчик / The Hitcher-Страна: США
Студия: Rogue Pictures, Intrepid Pictures
Жанр: Триллер
Год выпуска: 2007
Продолжительность: 01:24:13-Перевод 1: Профессиональный (многоголосый закадровый) Киномания
Перевод 2: Профессиональный (многоголосый закадровый)
Перевод 3: Профессиональный (дублированный)
Перевод 4: Авторский (одноголосый закадровый) Юрий Немахов
Cубтитры: русские (x2), английские
Оригинальная аудиодорожка: английский-Режиссер: Дэйв Мейерс / Dave Meyers
В ролях: Шон Бин, София Буш, Захари Найтон, Нил МакДонаф, Кайл Дэвис, Скип О`Брайэн, Дэнни Болеро, Джеффри Хатчинсон, Яра Мартинез-Описание: Римейк одноименного триллера 1986 года Роберта Хармона с Рутгером Хауэром и Дженнифер Джейсон Ли.
Зловещей промозглой ночью на распутье калифорнийских дорог молодая пара сажает в машину одинокого попутчика. Они соглашаются его подвезти, не подозревая, какой опасности себя подвергают. Ночной пассажир оказывается изощренным и безжалостным маньяком, сеющим смерть на своем пути...-Сэмпл: http://yadi.sk/d/iQmiNtS-7bS6V-Тип релиза: BDRemux 1080p
Контейнер: MKV
Видео: MPEG-4 AVC Video 21967 kbps 1080p / 23,976 fps / 16:9 / High Profile 4.1
Аудио 1: Dolby Digital Audio Russian 5.1 / 48 kHz / 384 kbps | MVO Киномания
Аудио 2: Dolby Digital Audio Russian 5.1 / 48 kHz / 448 kbps | MVO 2
Аудио 3: Russian / DTS Audio / 5.1 / 48 kHz / 755 kbps / 24-bit | Дубляж
Аудио 4: Russian / DTS Audio / 5.1 / 48 kHz / 755 kbps / 24-bit | Немахов
Аудио 5: Dolby Digital Audio Ukrainian 5.1 / 48 kHz / 640 kbps | 1+1
Аудио 6: DTS-HD Master Audio English 5.1 / 48 kHz / 2004 kbps / 16-bit (DTS Core: 5.1 / 48 kHz / 1509 kbps / 16-bit / DN -4dB)
Формат субтитров: softsub (SRT)

MI

General
Complete name                    : X:\  -= Фильмы =-\Попутчик (2007. The Hitcher).mkv
Format                           : Matroska
File size                        : 15.9 GiB
Duration                         : 1h 24mn
Overall bit rate                 : 26.9 Mbps
Movie name                       : Release for
Encoded date                     : UTC 2013-08-05 18:53:22
Writing application              : mkvmerge v4.9.1 ('Ich will') сборка от Jul 11 2011 23:53:15
Writing library                  : libebml v1.2.1 + libmatroska v1.1.1
Video
ID                               : 1
Format                           : AVC
Format/Info                      : Advanced Video Codec
Format profile                   : High@L4.1
Format settings, CABAC           : Yes
Format settings, ReFrames        : 4 frames
Muxing mode                      : Container profile=Unknown@4.1
Codec ID                         : V_MPEG4/ISO/AVC
Duration                         : 1h 24mn
Bit rate mode                    : Variable
Maximum bit rate                 : 40.0 Mbps
Width                            : 1 920 pixels
Height                           : 1 080 pixels
Display aspect ratio             : 16:9
Frame rate                       : 23.976 fps
Color space                      : YUV
Chroma subsampling               : 4:2:0
Bit depth                        : 8 bits
Scan type                        : Progressive
Title                            : The Hitcher 2007 1080p Blu-ray GER AVC DTS-HD MA 5.1-VIAHD
Language                         : English
Color primaries                  : BT.709-5, BT.1361, IEC 61966-2-4, SMPTE RP177
Transfer characteristics         : BT.709-5, BT.1361
Matrix coefficients              : BT.709-5, BT.1361, IEC 61966-2-4 709, SMPTE RP177
Audio #1
ID                               : 2
Format                           : AC-3
Format/Info                      : Audio Coding 3
Mode extension                   : CM (complete main)
Codec ID                         : A_AC3
Duration                         : 1h 24mn
Bit rate mode                    : Constant
Bit rate                         : 384 Kbps
Channel(s)                       : 6 channels
Channel positions                : Front: L C R, Side: L R, LFE
Sampling rate                    : 48.0 KHz
Bit depth                        : 16 bits
Stream size                      : 232 MiB (1%)
Title                            : MVO [Киномания]
Language                         : Russian
Audio #2
ID                               : 3
Format                           : AC-3
Format/Info                      : Audio Coding 3
Mode extension                   : CM (complete main)
Codec ID                         : A_AC3
Duration                         : 1h 24mn
Bit rate mode                    : Constant
Bit rate                         : 448 Kbps
Channel(s)                       : 6 channels
Channel positions                : Front: L C R, Side: L R, LFE
Sampling rate                    : 48.0 KHz
Bit depth                        : 16 bits
Stream size                      : 270 MiB (2%)
Title                            : MVO
Language                         : Russian
Audio #3
ID                               : 4
Format                           : DTS
Format/Info                      : Digital Theater Systems
Codec ID                         : A_DTS
Duration                         : 1h 24mn
Bit rate mode                    : Constant
Bit rate                         : 755 Kbps
Channel(s)                       : 6 channels
Channel positions                : Front: L C R, Side: L R, LFE
Sampling rate                    : 48.0 KHz
Bit depth                        : 24 bits
Stream size                      : 455 MiB (3%)
Title                            : Дубляж
Language                         : Russian
Audio #4
ID                               : 5
Format                           : DTS
Format/Info                      : Digital Theater Systems
Codec ID                         : A_DTS
Duration                         : 1h 24mn
Bit rate mode                    : Constant
Bit rate                         : 755 Kbps
Channel(s)                       : 6 channels
Channel positions                : Front: L C R, Side: L R, LFE
Sampling rate                    : 48.0 KHz
Bit depth                        : 24 bits
Stream size                      : 455 MiB (3%)
Title                            : Юрий Немахов
Language                         : Russian
Audio #5
ID                               : 6
Format                           : AC-3
Format/Info                      : Audio Coding 3
Mode extension                   : CM (complete main)
Codec ID                         : A_AC3
Duration                         : 1h 24mn
Bit rate mode                    : Constant
Bit rate                         : 640 Kbps
Channel(s)                       : 6 channels
Channel positions                : Front: L C R, Side: L R, LFE
Sampling rate                    : 48.0 KHz
Bit depth                        : 16 bits
Stream size                      : 386 MiB (2%)
Title                            : DVO [1+1]
Language                         : Ukrainian
Audio #6
ID                               : 7
Format                           : DTS
Format/Info                      : Digital Theater Systems
Format profile                   : MA
Codec ID                         : A_DTS
Duration                         : 1h 24mn
Bit rate mode                    : Variable
Channel(s)                       : 6 channels
Channel positions                : Front: L C R, Side: L R, LFE
Sampling rate                    : 48.0 KHz
Bit depth                        : 16 bits
Language                         : English
Text #1
ID                               : 8
Format                           : UTF-8
Codec ID                         : S_TEXT/UTF8
Codec ID/Info                    : UTF-8 Plain Text
Language                         : Russian
Text #2
ID                               : 9
Format                           : UTF-8
Codec ID                         : S_TEXT/UTF8
Codec ID/Info                    : UTF-8 Plain Text
Title                            : Киномания
Language                         : Russian
Text #3
ID                               : 10
Format                           : UTF-8
Codec ID                         : S_TEXT/UTF8
Codec ID/Info                    : UTF-8 Plain Text
Language                         : English
Text #4
ID                               : 11
Format                           : UTF-8
Codec ID                         : S_TEXT/UTF8
Codec ID/Info                    : UTF-8 Plain Text
Title                            : SDH
Language                         : English
Menu
00:00:00.000                     : en:00:00:00.000
00:05:21.905                     : en:00:05:21.905
00:13:10.832                     : en:00:13:10.832
00:20:52.293                     : en:00:20:52.293
00:30:39.713                     : en:00:30:39.713
00:40:33.598                     : en:00:40:33.598
00:48:47.174                     : en:00:48:47.174
00:54:58.712                     : en:00:54:58.712
01:00:57.904                     : en:01:00:57.904
01:11:00.423                     : en:01:11:00.423
01:18:41.508                     : en:01:18:41.508

Скриншоты


Скачать

Скачать торрент!

Как скачивать? · Что такое торрент? · Рейтинг и ограничения

Сайт не распространяет и не хранит электронные версии произведений, а лишь предоставляет доступ к создаваемому пользователями каталогу ссылок на торрент-файлы, которые содержат только списки хеш-сумм

[Профиль] [ЛС]
Показать сообщения:    
Ответить на тему

Текущее время: Сегодня 00:43

Часовой пояс: GMT + 4



Вы не можете начинать темы
Вы не можете отвечать на сообщения
Вы не можете редактировать свои сообщения
Вы не можете удалять свои сообщения
Вы не можете голосовать в опросах
Вы не можете прикреплять файлы к сообщениям
Вы не можете скачивать файлы