Армия Франкенштейна / Frankenstein's Army (Ричард Раапхорс / Richard Raaphorst) [2013, Нидерланды, США, Чехия, Ужасы, Боевик, WEB-DLRip] VO

Ответить на тему
 
Автор Сообщение

user ®

Стаж: 7 лет 7 месяцев

Сообщений: 20008

Пост Пост: #1 от 07-Авг-2013 02:25

[Цитировать]

Армия Франкенштейна / Frankenstein's Army- Страна: Нидерланды, США, Чехия
Жанр: Ужасы, Боевик
Год выпуска: 2013
Продолжительность: 01:24:01-Перевод: Одноголосый закадровый
Cубтитры: нет
Оригинальная аудиодорожка: нет-Режиссер: Ричард Раапхорс / Richard Raaphorst
В ролях: Карел Роден, Джошуа Зассе, Роберт Гвилим, Александр Меркюри, Люк Ньюберри, Хон Пинг Тэнг, Андрей Заяц, Марк Стивенсон, Кристина Каталина-Описание: Конец Великой Отечественной войны. Русские солдаты уже ступают по территории Германии. Случайно они находят тайную нацистскую лабораторию, в которой по записям доктора Франкенштейна гитлеровцы вовсю экспериментировали с мертвой и живой плотью и создавали армию суперсолдат — последняя и отчаяная попытка Гитлера избежать поражения в войне…- -Качество видео: WEB-DLRip
Формат видео: AVI-Видео: 640x352 (1.82:1), 23.976 fps, XviD MPEG-4 ~1022 kbps avg, 0.19 bit/pixel
Аудио: Russian ( 48 kHz, MPEG Layer 3, 2 ch, ~128.00 kbps avg )

MediaInfo

Общее
Полное имя : F:\Rutracker\Armija.Frankenshtejna.2013.WEB-DLRip.700MB.avi
Формат : AVI
Формат/Информация : Audio Video Interleave
Размер файла : 697 Мбайт
Продолжительность : 1 ч. 24 м.
Общий поток : 1160 Кбит/сек
Программа кодирования : VirtualDubMod 1.5.10.2 (build 2540/release)
Библиотека кодирования : VirtualDubMod build 2540/release
Видео
Идентификатор : 0
Формат : MPEG-4 Visual
Профиль формата : Advanced Simple@L5
Параметр BVOP формата : 2
Параметр QPel формата : Нет
Параметр GMC формата : Без точки перехода
Параметр матрицы формата : Default (H.263)
Режим смешивания : Сжатый битовый поток
Идентификатор кодека : XVID
Идентификатор кодека/Подсказка : XviD
Продолжительность : 1 ч. 24 м.
Битрейт : 1023 Кбит/сек
Ширина : 640 пикс.
Высота : 352 пикс.
Соотношение сторон : 16:9
Частота кадров : 23,976 кадр/сек
Цветовое пространство : YUV
Подвыборка цветности : 4:2:0
Битовая глубина : 8 бит
Тип развёртки : Прогрессивная
Метод сжатия : С потерями
Бит/(Пиксели*Кадры) : 0.189
Размер потока : 615 Мбайт (88%)
Библиотека кодирования : XviD 64
Аудио
Идентификатор : 1
Формат : MPEG Audio
Версия формата : Version 1
Профиль формата : Layer 3
Режим : Joint stereo
Расширение режима : MS Stereo
Идентификатор кодека : 55
Идентификатор кодека/Подсказка : MP3
Продолжительность : 1 ч. 24 м.
Вид битрейта : Постоянный
Битрейт : 128 Кбит/сек
Каналы : 2 канала
Частота : 48,0 КГц
Метод сжатия : С потерями
Размер потока : 76,9 Мбайт (11%)
Выравнивание : Соединение по промежуткам
Продолжительность промежутка : 42 мс. (1,00 видеокадр)
Время предзагрузки промежутка : 504 ms
Библиотека кодирования : LAME3.99r
Настройки программы : -m j -V 4 -q 6 -lowpass 17 -b 128

Скриншот c названием фильма

Скриншоты

Скачать

Скачать торрент!

Как скачивать? · Что такое торрент? · Рейтинг и ограничения

Сайт не распространяет и не хранит электронные версии произведений, а лишь предоставляет доступ к создаваемому пользователями каталогу ссылок на торрент-файлы, которые содержат только списки хеш-сумм

[Профиль] [ЛС]
Показать сообщения:    
Ответить на тему

Текущее время: Сегодня 12:11

Часовой пояс: GMT + 4



Вы не можете начинать темы
Вы не можете отвечать на сообщения
Вы не можете редактировать свои сообщения
Вы не можете удалять свои сообщения
Вы не можете голосовать в опросах
Вы не можете прикреплять файлы к сообщениям
Вы не можете скачивать файлы