Собутыльники / Drinking Buddies (Джо Сванберг / Joe Swanberg) [2013, США, Драма, Мелодрама, Комедия, WEB-DLRip] VO

Ответить на тему
 
Автор Сообщение

user ®

Стаж: 7 лет 7 месяцев

Сообщений: 20008

Пост Пост: #1 от 07-Авг-2013 02:25

[Цитировать]

Собутыльники / Drinking Buddies-«A comedy about knowing when to say when.»- Страна: США
Жанр: Драма, Мелодрама, Комедия
Год выпуска: 2013
Продолжительность: 01:30:22
Перевод: Одноголосый закадровый
Cубтитры: нет
Оригинальная аудиодорожка: нет-Режиссер: Джо Сванберг / Joe Swanberg
В ролях: Оливия Уайлд, Джейк Джонсон, Анна Кендрик, Рон Ливингстон, Джо Сванберг, Тай Уэст, Роберта Чунг, Калли Стефенс, Сэм Слэйтер, Майк Брюн-Описание: Люк и Кейт сотрудники чикагского пивоваренного завода, где они проводят свои дни, выпивая и флиртуя. Они идеально подходят друг другу, но вот только они оба уже состоят в отношениях…- -Качество видео: WEB-DLRip
Формат видео: AVI-Видео: 640x272 (2.35:1), 23.976 fps, XviD MPEG-4 ~946 kbps avg, 0.23 bit/pixel
Аудио: Russian ( 48 kHz, MPEG Layer 3, 2 ch, ~128.00 kbps avg )

MediaInfo

Общее
Полное имя : F:\Rutracker\Sobutylniki.2013.WEBDLRip.700MB.avi
Формат : AVI
Формат/Информация : Audio Video Interleave
Размер файла : 701 Мбайт
Продолжительность : 1 ч. 30 м.
Общий поток : 1084 Кбит/сек
Программа кодирования : VirtualDubMod 1.5.10.3 | www.virtualdub-fr.org || (build 2550/release)
Библиотека кодирования : VirtualDubMod build 2550/release
Видео
Идентификатор : 0
Формат : MPEG-4 Visual
Профиль формата : Advanced Simple@L5
Параметр BVOP формата : 2
Параметр QPel формата : Нет
Параметр GMC формата : Без точки перехода
Параметр матрицы формата : Default (MPEG)
Режим смешивания : Сжатый битовый поток
Идентификатор кодека : XVID
Идентификатор кодека/Подсказка : XviD
Продолжительность : 1 ч. 30 м.
Битрейт : 947 Кбит/сек
Ширина : 640 пикс.
Высота : 272 пикс.
Соотношение сторон : 2,35:1
Частота кадров : 23,976 кадр/сек
Цветовое пространство : YUV
Подвыборка цветности : 4:2:0
Битовая глубина : 8 бит
Тип развёртки : Прогрессивная
Метод сжатия : С потерями
Бит/(Пиксели*Кадры) : 0.227
Размер потока : 612 Мбайт (87%)
Библиотека кодирования : XviD 73
Аудио
Идентификатор : 1
Формат : MPEG Audio
Версия формата : Version 1
Профиль формата : Layer 3
Идентификатор кодека : 55
Идентификатор кодека/Подсказка : MP3
Продолжительность : 1 ч. 30 м.
Вид битрейта : Постоянный
Битрейт : 128 Кбит/сек
Каналы : 2 канала
Частота : 48,0 КГц
Метод сжатия : С потерями
Размер потока : 82,7 Мбайт (12%)
Выравнивание : Соединение по промежуткам
Продолжительность промежутка : 42 мс. (1,00 видеокадр)
Время предзагрузки промежутка : 504 ms
Библиотека кодирования : LAME3.99r
Настройки программы : -m s -V 4 -q 2 -lowpass 17 -b 128

Скриншот c названием фильма

Скриншоты

Скачать

Скачать торрент!

Как скачивать? · Что такое торрент? · Рейтинг и ограничения

Сайт не распространяет и не хранит электронные версии произведений, а лишь предоставляет доступ к создаваемому пользователями каталогу ссылок на торрент-файлы, которые содержат только списки хеш-сумм

[Профиль] [ЛС]
Показать сообщения:    
Ответить на тему

Текущее время: Сегодня 19:58

Часовой пояс: GMT + 4



Вы не можете начинать темы
Вы не можете отвечать на сообщения
Вы не можете редактировать свои сообщения
Вы не можете удалять свои сообщения
Вы не можете голосовать в опросах
Вы не можете прикреплять файлы к сообщениям
Вы не можете скачивать файлы