Мадрасапаттинам / Мадрас - любовь моя / Madrasapattinam (А. Л. Виджай / A. L. Vijay) [2010, Индия, Мелодрама, исторический, HDRip] МVO + Sub Rus (песни)

Ответить на тему
 
Автор Сообщение

user ®

Стаж: 12 лет

Сообщений: 15124

Пост Пост: #1 от 06-Авг-2013 20:10

[Цитировать]

Мадрасапаттинам / Мадрас - любовь моя / Madrasapattinam
-Страна: Индия
Жанр: Мелодрама, исторический
Год выпуска: 2010
Продолжительность: 02:45:28-Язык: Тамили
Перевод: Профессиональный (многоголосый закадровый) - Red Media
Cубтитры: Есть (только песни)--Режиссер: А. Л. Виджай / A. L. Vijay-В ролях: Арья, Эми Джексон, Кочин Ханифа, Алекс О'Нил, Нассер, Джек Джеймс, Омар Латиф--Описание: История, повестующая о любви вне границ религий и убеждений. Это случилось в последние дни правления британской империи над Индией, летом 1947. Дочь губернатора Мадрасапаттинама Эми впервые приехала к своему отцу в Индию. Она, как многие впервые посетившие Индию, влюбилась в эту страну, её народ и культуру. В первый же день её приезда молодой смелый парень спасает на дороге ослика. Позже между Эми и ним рождается дружба, а затем и любовь. Но не все понимают их чувства. Многие погрязли в своих костных взглядах. Каков конец этой красивой романтической истории, произошедшей в те смутные времена?-- | Трейлер | Сэмпл--Качество видео: HDRip (исх. BDRip 720p)
Формат видео: AVI-Видео: XviD, 672х288, 23.976 fps, 1158 Kbps
Аудио: MP3, 44.1 KHz, 2ch, 96 Kbps
Доп.информация о субтитрах: softsub (SRT)--Сэмпл / Sample--Риппер, сведение звука: soso4eg
Перевод субтитров к песням: Margosha (спасибо!)-- -
-

Скриншоты с названием:


-

Скриншоты:


-

MediaInfo:

Общее
Полное имя : C:\INDIYA\[Релизы]\Новая папка\Madrasapattinam.2010.HDRip.XviD.soso4eg.avi
Формат : AVI
Формат/Информация : Audio Video Interleave
Размер файла : 1,46 Гбайт
Продолжительность : 2 ч. 45 м.
Общий поток : 1264 Кбит/сек
Программа кодирования : VirtualDubMod 1.6.0.0 SURROUND (build 2560/release)
Видео
Идентификатор : 0
Формат : MPEG-4 Visual
Профиль формата : Advanced Simple@L5
Параметр BVOP формата : 2
Параметр QPel формата : Нет
Параметр GMC формата : Без точки перехода
Параметр матрицы формата : Default (H.263)
Идентификатор кодека : XVID
Идентификатор кодека/Подсказка : XviD
Продолжительность : 2 ч. 45 м.
Битрейт : 1158 Кбит/сек
Ширина : 672 пикселя
Высота : 288 пикселей
Соотношение сторон : 2,35:1
Частота кадров : 23,976 кадра/сек
Цветовое пространство : YUV
Субдискретизация насыщенности : 4:2:0
Битовая глубина : 8 бит
Тип развёртки : Прогрессивная
Метод сжатия : С потерями
Бит/(Пиксели*Кадры) : 0.250
Размер потока : 1,34 Гбайт (92%)
Библиотека кодирования : XviD 1.2.1 (UTC 2008-12-04)
Аудио
Идентификатор : 1
Формат : MPEG Audio
Версия формата : Version 1
Профиль формата : Layer 3
Идентификатор кодека : 55
Идентификатор кодека/Подсказка : MP3
Продолжительность : 2 ч. 45 м.
Вид битрейта : Постоянный
Битрейт : 96,0 Кбит/сек
Каналы : 2 канала
Частота : 44,1 КГц
Метод сжатия : С потерями
Размер потока : 114 Мбайт (8%)
Выравнивание : Разделение по промежуткам
Продолжительность промежутка : 42 мс. (1,00 видеокадр)
Время предзагрузки промежутка : 500 мс.
-
Скачать

Скачать торрент! Мадрасапаттинам / Мадрас - любовь моя / Madrasapattinam (А. Л. Виджай / A. L. Vijay) [2010, Индия, Мелодрама, исторический, HDRip] МVO + Sub Rus (песни)

Как скачивать? · Что такое торрент? · Рейтинг и ограничения

Сайт не распространяет и не хранит электронные версии произведений, а лишь предоставляет доступ к создаваемому пользователями каталогу ссылок на торрент-файлы, которые содержат только списки хеш-сумм

[Профиль] [ЛС]
Показать сообщения:    
Ответить на тему

Текущее время: Сегодня 21:14

Часовой пояс: GMT + 4



Вы не можете начинать темы
Вы не можете отвечать на сообщения
Вы не можете редактировать свои сообщения
Вы не можете удалять свои сообщения
Вы не можете голосовать в опросах
Вы не можете прикреплять файлы к сообщениям
Вы не можете скачивать файлы