Обливион / Oblivion (Джозеф Косински / Joseph Kosinski) [2013, США, фантастика, боевик, триллер, приключения, мелодрам, BDRip 720p] Dub (Blu-ray CEE) + Sub Rus, Eng + Original Eng

Ответить на тему
 
Автор Сообщение

user ®

Стаж: 7 лет 7 месяцев

Сообщений: 20008

Пост Пост: #1 от 06-Авг-2013 20:10

[Цитировать]

Обливион / Oblivion-Год выпуска: 2013
Страна: США
Жанр: фантастика, боевик, триллер, приключения, мелодрамa
Продолжительность: 02:04:42
Перевод 1: Профессиональный (Дубляж) - CEE
Субтитры: Русские, Английские
Режиссер: Джозеф Косински / Joseph Kosinski
В ролях: Том Круз, Ольга Куриленко, Андреа Райзборо, Морган Фриман, Николай Костер-Вальдау, Мелисса Лео, Зои Белл, Эбигейл Лоу, Изабель Лоу, Дэвид Мэдисон-Описание: Земля, пережившая войну с инопланетными захватчиками, опустела; остатки человечества готовятся покинуть непригодную для жизни планету. Главный герой - техник по обслуживанию дронов - находит разбившийся корабль NASA, команда которого погибает у него на глазах. Ему удаётся спасти лишь одну женщину - и вскоре он понимает, что это перевернёт его жизнь
-Тип релиза: BDRip 720р (Исходник: Oblivion 2013 1080p Blu-ray AVC DTS-HD MA 7.1-PublicHD)
Контейнер: MKV Sample
Видео: H.264, 23.976 fps, 1280x536р (OAR 2.40), 4500 kbps
Звук #1: Русский DTS 5.1, 48 KHz, 24 bit, 768 kbps |Blu ray CEE|
Звук #2: Английский DTS 5.1, 48 KHz, 24 bit, 1536 kbps,
Звук #3: Английски, AC3, 2.0 48 KHz, 16 bit, 192 kbps, |комментарий Тома Круза и режисера Джозефа Косински|
Субтитры: Русские (форсированные), Русски, Английские (SDH), Английские (комментарии Тома Круза и режисера Джозефа Косинськи)
Формат субтитров: softsub (SRT)
Главы: 20
Релиз группы:

Mediainfo

General
Format : Matroska
Format version : Version 4 / Version 2
File size : 6.07 GiB
Duration : 2h 4mn
Overall bit rate : 6 973 Kbps
Movie name : Oblivion (2013) 720p BDRip [HDv0T]
Encoded date : UTC 2013-08-05 10:31:47
Writing application : mkvmerge v6.3.0 ('You can't stop me!') built on Jun 28 2013 20:09:41
Writing library : libebml v1.3.0 + libmatroska v1.4.0
Attachment : Yes
Video
ID : 1
Format : AVC
Format/Info : Advanced Video Codec
Format profile : High@L4.1
Format settings, CABAC : Yes
Format settings, ReFrames : 12 frames
Codec ID : V_MPEG4/ISO/AVC
Duration : 2h 4mn
Bit rate : 4 500 Kbps
Width : 1 280 pixels
Height : 536 pixels
Display aspect ratio : 2.40:1
Frame rate mode : Constant
Frame rate : 23.976 fps
Color space : YUV
Chroma subsampling : 4:2:0
Bit depth : 8 bits
Scan type : Progressive
Bits/(Pixel*Frame) : 0.274
Stream size : 3.80 GiB (63%)
Title : Oblivion.2013.720p.BDRip.x264-AngeL
Writing library : x264 core 133 r2334 a3ac64b
Encoding settings : cabac=1 / ref=12 / deblock=1:-2:-1 / analyse=0x3:0x113 / me=tesa / subme=11 / psy=1 / psy_rd=1.10:0.00 / mixed_ref=1 / me_range=32 / chroma_me=1 / trellis=2 / 8x8dct=1 / cqm=0 / deadzone=21,11 / fast_pskip=0 / chroma_qp_offset=-2 / threads=18 / lookahead_threads=1 / sliced_threads=0 / nr=0 / decimate=0 / interlaced=0 / bluray_compat=0 / constrained_intra=0 / bframes=10 / b_pyramid=2 / b_adapt=2 / b_bias=0 / direct=3 / weightb=1 / open_gop=0 / weightp=2 / keyint=250 / keyint_min=23 / scenecut=40 / intra_refresh=0 / rc=2pass / mbtree=0 / bitrate=4500 / ratetol=1.0 / qcomp=0.60 / qpmin=0 / qpmax=69 / qpstep=4 / cplxblur=20.0 / qblur=0.5 / ip_ratio=1.40 / pb_ratio=1.30 / aq=1:0.80
Language : English
Default : Yes
Forced : No
Audio #1
ID : 2
Format : DTS
Format/Info : Digital Theater Systems
Mode : 16
Format settings, Endianness : Big
Codec ID : A_DTS
Duration : 2h 4mn
Bit rate mode : Constant
Bit rate : 768 Kbps
Channel(s) : 6 channels
Channel positions : Front: L C R, Side: L R, LFE
Sampling rate : 48.0 KHz
Bit depth : 24 bits
Compression mode : Lossy
Stream size : 685 MiB (11%)
Title : Blu-ray CEE DTS: 5.1, 48 KHz, 24bit @ 768 kbps
Language : Russian
Default : Yes
Forced : No
Audio #2
ID : 3
Format : DTS
Format/Info : Digital Theater Systems
Mode : 16
Format settings, Endianness : Big
Codec ID : A_DTS
Duration : 2h 4mn
Bit rate mode : Constant
Bit rate : 1 509 Kbps
Channel(s) : 6 channels
Channel positions : Front: L C R, Side: L R, LFE
Sampling rate : 48.0 KHz
Bit depth : 24 bits
Compression mode : Lossy
Stream size : 1.31 GiB (22%)
Title : Core DTS: 5.1, 48 KHz, 24bit @ 1536 kbps
Language : English
Default : No
Forced : No
Audio #3
ID : 4
Format : AC-3
Format/Info : Audio Coding 3
Mode extension : CM (complete main)
Format settings, Endianness : Big
Codec ID : A_AC3
Duration : 2h 4mn
Bit rate mode : Constant
Bit rate : 192 Kbps
Channel(s) : 2 channels
Channel positions : Front: L R
Sampling rate : 48.0 KHz
Bit depth : 16 bits
Compression mode : Lossy
Stream size : 171 MiB (3%)
Title : Commentary: 2.0, 48 KHz, 16bit @ 192 kbps (Tom Cruise and director Joseph Kosinski)
Language : English
Default : No
Forced : No
Text #1
ID : 5
Format : ASS
Codec ID : S_TEXT/ASS
Codec ID/Info : Advanced Sub Station Alpha
Compression mode : Lossless
Title : Forced
Language : Russian
Default : Yes
Forced : Yes
Text #2
ID : 6
Format : ASS
Codec ID : S_TEXT/ASS
Codec ID/Info : Advanced Sub Station Alpha
Compression mode : Lossless
Title : Full
Language : Russian
Default : No
Forced : No
Text #3
ID : 7
Format : ASS
Codec ID : S_TEXT/ASS
Codec ID/Info : Advanced Sub Station Alpha
Compression mode : Lossless
Title : English (SDH)
Language : English
Default : No
Forced : No
Text #4
ID : 8
Format : ASS
Codec ID : S_TEXT/ASS
Codec ID/Info : Advanced Sub Station Alpha
Compression mode : Lossless
Title : English (commentary with Tom Cruise and director Joseph Kosinski)
Language : English
Default : No
Forced : No
Menu
00:00:00.000 : uk:Глава 1
00:04:31.354 : uk:Глава 2
00:12:51.813 : uk:Глава 3
00:21:25.284 : uk:Глава 4
00:27:20.138 : uk:Глава 5
00:35:30.337 : uk:Глава 6
00:40:06.779 : uk:Глава 7
00:46:16.023 : uk:Глава 8
00:52:22.181 : uk:Глава 9
01:01:59.716 : uk:Глава 10
01:07:59.409 : uk:Глава 11
01:16:25.831 : uk:Глава 12
01:22:08.173 : uk:Глава 13
01:25:31.752 : uk:Глава 14
01:30:22.542 : uk:Глава 15
01:36:30.368 : uk:Глава 16
01:40:29.106 : uk:Глава 17
01:46:27.423 : uk:Глава 18
01:53:05.320 : uk:Глава 19
01:58:23.847 : uk:Глава 20

Source vs Encode (Random B-frames)

x264

Скачать

Скачать торрент!

Как скачивать? · Что такое торрент? · Рейтинг и ограничения

Сайт не распространяет и не хранит электронные версии произведений, а лишь предоставляет доступ к создаваемому пользователями каталогу ссылок на торрент-файлы, которые содержат только списки хеш-сумм

[Профиль] [ЛС]
Показать сообщения:    
Ответить на тему

Текущее время: Сегодня 07:51

Часовой пояс: GMT + 4



Вы не можете начинать темы
Вы не можете отвечать на сообщения
Вы не можете редактировать свои сообщения
Вы не можете удалять свои сообщения
Вы не можете голосовать в опросах
Вы не можете прикреплять файлы к сообщениям
Вы не можете скачивать файлы