Экзамен для двоих / Admission (Пол Вайц / Paul Weitz) [2013, Драма, мелодрама, комедия, BDRip-AVC]

Ответить на тему
 
Автор Сообщение

user ®

Стаж: 7 лет 7 месяцев

Сообщений: 20008

Пост Пост: #1 от 06-Авг-2013 20:10

[Цитировать]

Экзамен для двоих / Admission- Страна: США, Depth of Field
Жанр: Драма, мелодрама, комедия
Год выпуска: 2013
Продолжительность: 01:47:07
Перевод: Профессиональный (дублированный) [Лицензия]
Субтитры: нет
Оригинальная дорожка: нет
Главы: есть
Режиссер: Пол Вайц / Paul Weitz
В ролях: Тина Фей, Пол Радд, Майкл Шин, Уоллес Шоун, Лили Томлин, Энн Харада, Бен Левин, Дэн Леви, Мэгги Кинэн-Болджер, Глория Рубен-Описание: Полли Нельсон работает в приемной комиссии престижного университета, она — вершитель судеб многих подростков. Но как устроить собственную судьбу? Появление идеального мужчины вовсе не обещает мир и покой, наоборот, приносит в её жизнь множество дурацких ситуаций и не всегда приятных сюрпризов. А тут ещё объявляется сын, которого Полли считала потерянным, и он, увы, далеко не отличник. Что спасать в первую очередь, карьеру или личную жизнь?-IMDB | Кинопоиск | Сэмпл-Качество видео: BDRip-AVC (энкод L)
Формат видео: MKV
Видео: AVC / High@L4.1 / 1030 x 430 / 1 499 Kbps / 2,40:1
Аудио: Russian: 48 kHz, AC3 Dolby Digital, 3/2 (L,C,R,l,r) + LFE ch, ~448 kbps

Скриншоты



Дополнительная информация о раздаче

Исходник

Admission.2013.1080p.BluRay.AVC.DTS-HD.MA.5.1

MediaInfo

Общее
Уникальный идентификатор                 : 241927182188880852133813338556129522300 (0xB6017AFF068263D19DB7FA5DBBAEB27C)
Полное имя                               : D:\25Kadr\Ekzamen.Dlya.Dvoih.2013.Bluray.x264.ac3.rus.by.L.mkv
Формат                                   : Matroska
Версия формата                           : Version 2
Размер файла                             : 1,46 Гбайт
Продолжительность                        : 1 ч. 47 м.
Общий поток                              : 1949 Кбит/сек
Название фильма                          : Экзамен для двоих / Admission [2013] | Рип от L
Дата кодирования                         : UTC 2013-08-06 11:19:09
Программа кодирования                    : mkvmerge v3.2.0 ('Beginnings') built on Feb 12 2010 16:46:17
Библиотека кодирования                   : libebml v0.7.9 + libmatroska v0.8.1
Видео
Идентификатор                            : 1
Формат                                   : AVC
Формат/Информация                        : Advanced Video Codec
Профиль формата                          : High@L4.1
Параметр CABAC формата                   : Да
Параметр ReFrames формата                : 11 кадров
Идентификатор кодека                     : V_MPEG4/ISO/AVC
Продолжительность                        : 1 ч. 47 м.
Битрейт                                  : 1499 Кбит/сек
Ширина                                   : 1030 пикселей
Высота                                   : 430 пикселей
Соотношение сторон                       : 2,40:1
Режим частоты кадров                     : Постоянный
Частота кадров                           : 23,976 кадра/сек
Цветовое пространство                    : YUV
Субдискретизация насыщенности            : 4:2:0
Битовая глубина                          : 8 бит
Тип развёртки                            : Прогрессивная
Бит/(Пиксели*Кадры)                      : 0.141
Размер потока                            : 1,09 Гбайт (75%)
Библиотека кодирования                   : x264 core 133 r2334 a3ac64b
Настройки программы                      : cabac=1 / ref=11 / deblock=1:-2:-1 / analyse=0x3:0x133 / me=umh / subme=11 / psy=1 / psy_rd=1.10:0.10 / mixed_ref=1 / me_range=32 / chroma_me=1 / trellis=2 / 8x8dct=1 / cqm=0 / deadzone=21,11 / fast_pskip=0 / chroma_qp_offset=-4 / threads=6 / lookahead_threads=1 / sliced_threads=0 / nr=0 / decimate=1 / interlaced=0 / bluray_compat=0 / constrained_intra=0 / bframes=13 / b_pyramid=2 / b_adapt=2 / b_bias=0 / direct=3 / weightb=1 / open_gop=0 / weightp=2 / keyint=230 / keyint_min=21 / scenecut=40 / intra_refresh=0 / rc_lookahead=0 / rc=2pass / mbtree=0 / bitrate=1499 / ratetol=1.0 / qcomp=0.70 / qpmin=0 / qpmax=69 / qpstep=4 / cplxblur=20.0 / qblur=0.5 / vbv_maxrate=50000 / vbv_bufsize=62500 / nal_hrd=none / ip_ratio=1.35 / pb_ratio=1.25 / aq=2:0.90
Язык                                     : English
Default                                  : Нет
Forced                                   : Нет
Аудио
Идентификатор                            : 2
Формат                                   : AC-3
Формат/Информация                        : Audio Coding 3
Расширение режима                        : CM (complete main)
Параметр Endianness формата              : Big
Идентификатор кодека                     : A_AC3
Продолжительность                        : 1 ч. 47 м.
Вид битрейта                             : Постоянный
Битрейт                                  : 448 Кбит/сек
Каналы                                   : 6 каналов
Расположение каналов                     : Front: L C R, Side: L R, LFE
Частота                                  : 48,0 КГц
Битовая глубина                          : 16 бит
Метод сжатия                             : С потерями
Размер потока                            : 343 Мбайт (23%)
Заголовок                                : Дубляж
Язык                                     : Russian
Default                                  : Да
Forced                                   : Да
Меню
00:00:00.000                             : en:00:00:00.000
00:06:25.635                             : en:00:06:25.635
00:10:23.164                             : en:00:10:23.164
00:16:40.124                             : en:00:16:40.124
00:20:07.665                             : en:00:20:07.665
00:25:02.251                             : en:00:25:02.251
00:29:10.958                             : en:00:29:10.958
00:35:35.425                             : en:00:35:35.425
00:40:15.622                             : en:00:40:15.622
00:46:49.724                             : en:00:46:49.724
00:50:58.514                             : en:00:50:58.514
00:55:45.634                             : en:00:55:45.634
00:58:55.824                             : en:00:58:55.824
01:05:51.322                             : en:01:05:51.322
01:09:30.625                             : en:01:09:30.625
01:13:32.700                             : en:01:13:32.700
01:19:58.544                             : en:01:19:58.544
01:27:01.091                             : en:01:27:01.091
01:35:40.985                             : en:01:35:40.985
01:40:42.328                             : en:01:40:42.328

Log_x264

---[Information] [29.06.2013 18:24:50] x264 [info]: frame I:2123  Avg QP:16.32  size: 80067  PSNR Mean Y:46.90 U:50.17 V:50.03 Avg:47.69 Global:47.24
---[Information] [29.06.2013 18:24:50] x264 [info]: frame P:27206 Avg QP:18.66  size: 16662  PSNR Mean Y:45.41 U:48.89 V:48.77 Avg:46.21 Global:45.46
---[Information] [29.06.2013 18:24:50] x264 [info]: frame B:124774 Avg QP:20.38  size:  4656  PSNR Mean Y:45.30 U:49.02 V:48.81 Avg:46.04 Global:45.06
Скачать

Скачать торрент!

Как скачивать? · Что такое торрент? · Рейтинг и ограничения

Сайт не распространяет и не хранит электронные версии произведений, а лишь предоставляет доступ к создаваемому пользователями каталогу ссылок на торрент-файлы, которые содержат только списки хеш-сумм

[Профиль] [ЛС]
Показать сообщения:    
Ответить на тему

Текущее время: Сегодня 22:33

Часовой пояс: GMT + 4



Вы не можете начинать темы
Вы не можете отвечать на сообщения
Вы не можете редактировать свои сообщения
Вы не можете удалять свои сообщения
Вы не можете голосовать в опросах
Вы не можете прикреплять файлы к сообщениям
Вы не можете скачивать файлы