Когда я убью себя / When I Kill Myself / Suicchi o osu toki (Рио Накаджима / Rio Nakajima) [2011, Япония, триллер, драма, DVDRip] DVO

Ответить на тему
 
Автор Сообщение

user ®

Стаж: 11 лет

Сообщений: 15151

Пост Пост: #1 от 06-Авг-2013 17:00

[Цитировать]

Когда я убью себя / When I Kill Myself / Suicchi o osu toki
Страна: Япония
Жанр: триллер, драма
Год выпуска: 2011
Продолжительность: 01:51:01
Перевод: Любительский (двухголосый закадровый) DeadSno & Den904
Cубтитры: нет
Режиссер: Рио Накаджима / Rio Nakajima
В ролях:
Ерена Мизусава
Кейсуке Койде
Шинжиро Атае
Сэйдзи Фукуси
Рио Канно
Масахико Нисимура
Хисахиро Огура
Шогу Сакамото
Казума Сано
Сава Сузуки
Описание: Недалекое будущее. 2026 год. В связи с высоким уровнем самоубийств, правительство Японии вводит и реализует научный эксперимент, дабы выявить причины растущего количества самоубийтсв среди детей и молодежи. Для этого детей отбирают и помещают специальный центр, где они находятся под постоянным наблюдением. В возрасте 10ти лет, к их сердцам прикрепляется особый датчик и дается пульт с кнопкой, чтобы они могли умереть по желанию и сразу же. Через несколько лет остается всего лишь пять участников эксперимента, которые не хотят умирать и отчаянно борятся за свободу, но смогут ли они противостоять жестокой государственной машине?
Доп. информация:
Перевод: Акира9
СЭМПЛ
Качество видео: DVDRip
Формат видео: AVI
Видео: XviD, 640x272 (2.35:1), 23.976 fps, 800 kbps
Аудио: 48 kHz, MP3, 2 ch, 128.00 kbps

MediaInfo

Format : AVI
Format/Info : Audio Video Interleave
File size : 745 MiB
Duration : 1h 51mn
Overall bit rate : 938 Kbps
Writing application : VirtualDubMod 1.5.10.3 | www.virtualdub-fr.org || (build 2550/release)
Writing library : VirtualDubMod build 2550/release
Video
ID : 0
Format : MPEG-4 Visual
Format profile : Advanced Simple@L5
Format settings, BVOP : 1
Format settings, QPel : No
Format settings, GMC : No warppoints
Format settings, Matrix : Default (MPEG)
Codec ID : XVID
Codec ID/Hint : XviD
Duration : 1h 51mn
Bit rate : 800 Kbps
Width : 640 pixels
Height : 272 pixels
Display aspect ratio : 2.35:1
Frame rate : 23.976 fps
Color space : YUV
Chroma subsampling : 4:2:0
Bit depth : 8 bits
Scan type : Progressive
Compression mode : Lossy
Bits/(Pixel*Frame) : 0.192
Stream size : 635 MiB (85%)
Writing library : XviD 1.2.1 (UTC 2008-12-04)
Audio
ID : 1
Format : MPEG Audio
Format version : Version 1
Format profile : Layer 3
Codec ID : 55
Codec ID/Hint : MP3
Duration : 1h 51mn
Bit rate mode : Constant
Bit rate : 128 Kbps
Channel(s) : 2 channels
Sampling rate : 48.0 KHz
Compression mode : Lossy
Stream size : 102 MiB (14%)
Alignment : Aligned on interleaves
Interleave, duration : 42 ms (1.00 video frame)
Interleave, preload duration : 504 ms
Writing library : LAME3.98r
Encoding settings : -m s -V 4 -q 2 -lowpass 17 -b 128

Скриншот c названием фильма

Скриншоты

Скачать

Скачать торрент! Когда я убью себя / When I Kill Myself / Suicchi o osu toki (Рио Накаджима / Rio Nakajima) [2011, Япония, триллер, драма, DVDRip] DVO

Как скачивать? · Что такое торрент? · Рейтинг и ограничения

Сайт не распространяет и не хранит электронные версии произведений, а лишь предоставляет доступ к создаваемому пользователями каталогу ссылок на торрент-файлы, которые содержат только списки хеш-сумм

[Профиль] [ЛС]
Показать сообщения:    
Ответить на тему

Текущее время: Сегодня 23:09

Часовой пояс: GMT + 4



Вы не можете начинать темы
Вы не можете отвечать на сообщения
Вы не можете редактировать свои сообщения
Вы не можете удалять свои сообщения
Вы не можете голосовать в опросах
Вы не можете прикреплять файлы к сообщениям
Вы не можете скачивать файлы