Дорожный патруль / Drogówka / Traffic Department (Войчех Смажовски / Wojciech Smarzowski) [2013, Польша, драма, комедия, криминал, BDRip 1080p] VO (zamez) + Original Pol + Subs (Rus, Pol, Eng)

Ответить на тему
 
Автор Сообщение

user ®

Стаж: 7 лет 7 месяцев

Сообщений: 20008

Пост Пост: #1 от 06-Авг-2013 17:00

[Цитировать]

Дорожный патруль / Drogówka / Traffic Department
Страна: Польша
Жанр: драма, комедия, криминал
Год выпуска: 2013
Продолжительность: 01:52:21
Перевод: Одноголосый закадровый [zamez]
Cубтитры: русские (Naumanns, Арт-группа STOP!Genocide), польские, английские
Оригинальная аудиодорожка: польский
Режиссер: Войчех Смажовски / Wojciech Smarzowski
В ролях: Бартломей Топа, Аркадиуш Якубик, Юлия Киёвская, Эрик Любош, Роберт Вабих, Яцек Брачак, Марчин Дорочиньский, Мариан Дзендзель, Агата Кулеша, Изабела Куна
Описание: История семерых закадычных друзей-полицейских. Один из команды погибает при невыясненных обстоятельствах. В убийстве коллеги обвиняют сержанта Рышарда Кролиса. Пытаясь докопаться до истины, он проводит собственное расследование, в результате которого обнаруживает паутину лжи и коррупции, в которой погрязли высокопоставленные чиновники.
Сэмпл: http://multi-up.com/891258
Тип релиза: BDRip 1080p
Контейнер: MKV
Видео: x264, 1920x800 (2,40:1), 9428 kb/s, 0.246 bit/pixel
Аудио: DTS, 1509 kbps (6 ch), 48 Khz, Polski
Аудио 2: AC3, 448 kb/s (6 ch), 48 Khz, Russian
Формат субтитров: softsub (SRT)
Исходник с польского треккера. Я добавила русскую дорожку от zamez и русские субтитры Naumanns, Арт-группа STOP!Genocide.
Предостережение от министра внутренних дел Польши Бартломея Сенкевича: "После просмотра возникает апатия и пропадает вера в органы власти"

MediaInfo

Общее
Уникальный идентификатор : 237700653314805651892510510013558690200 (0xB2D37B08BA8BCEB286F0F3EC82C21198)
Полное имя : C:\filmy\PL\Drogówka.2013.1080p.BluRay.mkv
Формат : Matroska
Версия формата : Version 2
Размер файла : 9,12 Гбайт
Продолжительность : 1 ч. 52 м.
Общий поток : 11,6 Мбит/сек
Дата кодирования : UTC 2013-08-05 12:42:56
Программа кодирования : mkvmerge v3.2.0 ('Beginnings') built on Feb 12 2010 16:46:17
Библиотека кодирования : libebml v0.7.9 + libmatroska v0.8.1
Видео
Идентификатор : 1
Формат : AVC
Формат/Информация : Advanced Video Codec
Профиль формата : High@L4.1
Параметр CABAC формата : Да
Параметр ReFrames формата : 5 кадров
Идентификатор кодека : V_MPEG4/ISO/AVC
Продолжительность : 1 ч. 52 м.
Битрейт : 9428 Кбит/сек
Номинальный битрейт : 10000 Кбит/сек
Ширина : 1920 пикселей
Высота : 800 пикселей
Соотношение сторон : 2,40:1
Режим частоты кадров : Постоянный
Частота кадров : 25,000 кадров/сек
Цветовое пространство : YUV
Субдискретизация насыщенности : 4:2:0
Битовая глубина : 8 бит
Тип развёртки : Прогрессивная
Бит/(Пиксели*Кадры) : 0.246
Размер потока : 7,40 Гбайт (81%)
Заголовок : ..:: TEAM ELiTE ::..
Библиотека кодирования : x264 core 120 r2164 da19765
Настройки программы : cabac=1 / ref=5 / deblock=1:-3:-3 / analyse=0x3:0x133 / me=umh / subme=10 / psy=1 / psy_rd=1.00:0.00 / mixed_ref=1 / me_range=24 / chroma_me=1 / trellis=2 / 8x8dct=1 / cqm=0 / deadzone=21,11 / fast_pskip=0 / chroma_qp_offset=-2 / threads=12 / sliced_threads=0 / nr=0 / decimate=0 / interlaced=0 / bluray_compat=0 / constrained_intra=0 / bframes=8 / b_pyramid=2 / b_adapt=2 / b_bias=0 / direct=3 / weightb=1 / open_gop=0 / weightp=2 / keyint=250 / keyint_min=25 / scenecut=40 / intra_refresh=0 / rc=abr / mbtree=0 / bitrate=10000 / ratetol=1.0 / qcomp=0.60 / qpmin=0 / qpmax=69 / qpstep=4 / ip_ratio=1.40 / pb_ratio=1.30 / aq=1:0.80
Язык : Polish
Default : Нет
Forced : Нет
Аудио #1
Идентификатор : 2
Формат : DTS
Формат/Информация : Digital Theater Systems
Режим : 16
Параметр Endianness формата : Big
Идентификатор кодека : A_DTS
Продолжительность : 1 ч. 52 м.
Вид битрейта : Постоянный
Битрейт : 1509 Кбит/сек
Каналы : 6 каналов
Расположение каналов : Front: L C R, Side: L R, LFE
Частота : 48,0 КГц
Битовая глубина : 24 бит
Метод сжатия : С потерями
Задержка видео : 11 мс.
Размер потока : 1,18 Гбайт (13%)
Заголовок : POLiSH AUDiO DTS 6 chnls 1509 kbps
Язык : Polish
Default : Да
Forced : Нет
Аудио #2
Идентификатор : 3
Формат : AC-3
Формат/Информация : Audio Coding 3
Расширение режима : CM (complete main)
Параметр Endianness формата : Big
Идентификатор кодека : A_AC3
Продолжительность : 1 ч. 52 м.
Вид битрейта : Постоянный
Битрейт : 448 Кбит/сек
Каналы : 6 каналов
Расположение каналов : Front: L C R, Side: L R, LFE
Частота : 48,0 КГц
Битовая глубина : 16 бит
Метод сжатия : С потерями
Размер потока : 360 Мбайт (4%)
Заголовок : [zamez]
Язык : Russian
Default : Нет
Forced : Нет
Текст #1
Идентификатор : 4
Формат : UTF-8
Идентификатор кодека : S_TEXT/UTF8
Идентификатор кодека/Информация : UTF-8 Plain Text
Язык : Russian
Default : Да
Forced : Нет
Текст #2
Идентификатор : 5
Формат : UTF-8
Идентификатор кодека : S_TEXT/UTF8
Идентификатор кодека/Информация : UTF-8 Plain Text
Язык : Polish
Default : Нет
Forced : Нет
Текст #3
Идентификатор : 6
Формат : UTF-8
Идентификатор кодека : S_TEXT/UTF8
Идентификатор кодека/Информация : UTF-8 Plain Text
Язык : English
Default : Нет
Forced : Нет
Меню
00:00:00.000 : en:00:00:00.000
00:08:57.680 : en:00:08:57.680
00:18:08.160 : en:00:18:08.160
00:27:33.520 : en:00:27:33.520
00:37:27.880 : en:00:37:27.880
00:46:23.040 : en:00:46:23.040
00:56:53.800 : en:00:56:53.800
01:06:29.720 : en:01:06:29.720
01:13:51.520 : en:01:13:51.520
01:24:00.120 : en:01:24:00.120
01:33:05.520 : en:01:33:05.520
01:42:12.320 : en:01:42:12.320

Скриншоты

По умолчанию фильм запускается с оригинальной дорожкой + русские субтитры
Скачать

Скачать торрент!

Как скачивать? · Что такое торрент? · Рейтинг и ограничения

Сайт не распространяет и не хранит электронные версии произведений, а лишь предоставляет доступ к создаваемому пользователями каталогу ссылок на торрент-файлы, которые содержат только списки хеш-сумм

[Профиль] [ЛС]
Показать сообщения:    
Ответить на тему

Текущее время: Сегодня 21:42

Часовой пояс: GMT + 4



Вы не можете начинать темы
Вы не можете отвечать на сообщения
Вы не можете редактировать свои сообщения
Вы не можете удалять свои сообщения
Вы не можете голосовать в опросах
Вы не можете прикреплять файлы к сообщениям
Вы не можете скачивать файлы