Хоттабыч / }{0ТТ@БЬ)Ч (Петр Точилин) [2006, Комедия, DVDRip-AVC]

Ответить на тему
 
Автор Сообщение

user ®

Стаж: 7 лет 7 месяцев

Сообщений: 20008

Пост Пост: #1 от 06-Авг-2013 08:00

[Цитировать]

Хоттабыч / }{0ТТ@БЬ)Ч
Жанр: Комедия
Год выпуска: 2006
Продолжительность: 01:31:48
Режиссёр: Петр Точилин
В ролях: Владимир Толоконников, Марюс Ямпольскис, Лива Круминя, Марк Гейхман, Юлия Паранова, Мила Липнер, Григорий Скряпкин, Иван Губанов, Александр Овчинников, Юрий Думчев, Константин Спасский, Ростислав Крохин, Самвел Асатрян, Николай Доброхотов, Андрей Дубровский, Полина Ганшина, Константин Кутаров, Светлана Павлова, Олег Поплавский, Михаил Рубцов, Александр Селезнев, Павел Сиротин, Мила Солдаткина, Дмитрий Таланцев, Максим Важов, Елена Волкова, Геннадий Косарев, Антон Эльдаров, Александр Шатохин, Сергей Годин, Евграф Прохоров, Юрий Волошенко
Описание: Гена — программист по призванию и хакер по жизни. Он хороший парень. Но у него реальные проблемы. Его бросила любимая девушка, его «пасут» бандиты и выслеживают спецслужбы. Спасти его может только чудо, и оно, конечно же, случается. В жизни Гены появляется Хоттабыч, джин, который отмотал несколько тысяч лет заключения в одиночном кувшине. И теперь готов исполнить три любых желания своего освободителя. Но у самого Хоттабыча тоже проблемы. За ним охотится его давний враг — Шайтаныч. Спасаясь от своих врагов, Гена и Хоттабыч летают на потраченном говорящей молью ковре-самолете над Красной площадью, путешествуют по сетям Мировой Паутины и практикуют магию: превращают людей в вещи, а вещи в людей…
Сэмпл: http://multi-up.com/506843
Качество видео: DVDRip-AVC
Формат видео: MKV
Видео: MPEG-4 AVC, 2500 Кбит/с, 720х516@962х516
Аудио: AC3, 6 ch, 448 Кбит/с

MediaInfo

General
Unique ID : 194541174783329966562155543658786097906 (0x925B4473E09C80B0AF62A454BB4A8AF2)
Complete name : \\MISHGANBOOK\Download\torrents\Кино\Hottabych.2006.x264.DVDRip(AVC).mkv
Format : Matroska
Format version : Version 2
File size : 1.89 GiB
Duration : 1h 31mn
Overall bit rate : 2 948 Kbps
Encoded date : UTC 2011-06-12 06:57:56
Writing application : mkvmerge v3.4.0 ('Rapunzel') сборка от May 15 2010 09:38:20
Writing library : libebml v0.8.0 + libmatroska v0.9.0
Video
ID : 1
Format : AVC
Format/Info : Advanced Video Codec
Format profile : High@L4.1
Format settings, CABAC : Yes
Format settings, ReFrames : 8 frames
Codec ID : V_MPEG4/ISO/AVC
Duration : 1h 31mn
Bit rate : 2 500 Kbps
Width : 720 pixels
Height : 516 pixels
Display aspect ratio : 1.85:1
Original display aspect ratio : 1.85:1
Frame rate : 25.000 fps
Color space : YUV
Chroma subsampling : 4:2:0
Bit depth : 8 bits
Scan type : Progressive
Bits/(Pixel*Frame) : 0.269
Stream size : 1.57 GiB (83%)
Title : }{oтт@бь)ч
Writing library : x264 core 108 r1790 8eaf8a6
Encoding settings : cabac=1 / ref=8 / deblock=1:-1:-1 / analyse=0x3:0x133 / me=umh / subme=10 / psy=1 / psy_rd=1.00:0.00 / mixed_ref=1 / me_range=24 / chroma_me=1 / trellis=2 / 8x8dct=1 / cqm=0 / deadzone=21,11 / fast_pskip=0 / chroma_qp_offset=-5 / threads=12 / sliced_threads=0 / nr=0 / decimate=1 / interlaced=0 / constrained_intra=0 / bframes=7 / b_pyramid=2 / b_adapt=2 / b_bias=0 / direct=3 / weightb=1 / open_gop=0 / weightp=2 / keyint=250 / keyint_min=25 / scenecut=40 / intra_refresh=0 / rc_lookahead=70 / rc=2pass / mbtree=1 / bitrate=2500 / ratetol=1.0 / qcomp=0.70 / qpmin=10 / qpmax=51 / qpstep=4 / cplxblur=20.0 / qblur=0.5 / vbv_maxrate=25000 / vbv_bufsize=14000 / ip_ratio=1.40 / aq=2:1.00 / nal_hrd=none
Language : English
Default : No
Forced : No
Audio
ID : 2
Format : AC-3
Format/Info : Audio Coding 3
Mode extension : CM (complete main)
Format settings, Endianness : Big
Codec ID : A_AC3
Duration : 1h 31mn
Bit rate mode : Constant
Bit rate : 448 Kbps
Channel(s) : 6 channels
Channel positions : Front: L C R, Side: L R, LFE
Sampling rate : 48.0 KHz
Bit depth : 16 bits
Compression mode : Lossy
Delay relative to video : 13s 302ms
Stream size : 294 MiB (15%)
Title : AC3 6ch. 448kbps rus.
Language : Russian
Default : Yes
Forced : No

Скриншот c названием фильма

Скриншоты

Скачать

Скачать торрент!

Как скачивать? · Что такое торрент? · Рейтинг и ограничения

Сайт не распространяет и не хранит электронные версии произведений, а лишь предоставляет доступ к создаваемому пользователями каталогу ссылок на торрент-файлы, которые содержат только списки хеш-сумм

[Профиль] [ЛС]
Показать сообщения:    
Ответить на тему

Текущее время: Сегодня 22:23

Часовой пояс: GMT + 4



Вы не можете начинать темы
Вы не можете отвечать на сообщения
Вы не можете редактировать свои сообщения
Вы не можете удалять свои сообщения
Вы не можете голосовать в опросах
Вы не можете прикреплять файлы к сообщениям
Вы не можете скачивать файлы