Экзамен для двоих / Admission (Пол Вайц / Paul Weitz) [2013, США, Драма, Мелодрама, Комедия, BDRip 1080p] Dub + DVO + Original Eng + Sub Rus, Eng

Ответить на тему
 
Автор Сообщение

user ®

Стаж: 7 лет 7 месяцев

Сообщений: 20008

Пост Пост: #1 от 06-Авг-2013 02:10

[Цитировать]

Экзамен для двоих / Admission
Страна: США - Depth of Field
Жанр: Драма, Мелодрама, Комедия
Год выпуска: 2013
Продолжительность: 01:47:07
Перевод: Профессиональный (дублированный)
Перевод 2:Двуголосый закадровый (любительский)
Cубтитры: Русский, английский, Вшитые отключаемые
Оригинальная аудиодорожка: английский
Режиссер: Пол Вайц / Paul Weitz
В ролях: Тина Фей, Пол Радд, Майкл Шин, Уоллес Шоун, Лили Томлин, Энн Харада, Бен Левин, Дэн Леви, Мэгги Кинэн-Болджер, Глория Рубен
Описание: Полли Нельсон работает в приемной комиссии престижного университета, она — вершитель судеб многих подростков. Но как устроить собственную судьбу? Появление идеального мужчины вовсе не обещает мир и покой, наоборот, приносит в её жизнь множество дурацких ситуаций и не всегда приятных сюрпризов. А тут ещё объявляется сын, которого Полли считала потерянным, и он, увы, далеко не отличник. Что спасать в первую очередь, карьеру или личную жизнь?
Сэмпл: http://multi-up.com/891286
Тип релиза: BDRip 1080p
Контейнер: MKV
Видео: H264, 11.4 Мбит/с, 1920x800, 23.976 кадр/с
Аудио: Русский: DTS, 5.1, 1536 Кбит/с, 48 kHz, 24 bit - дублированный
Аудио 2: Русский: AC3, 5.1, 384 Кбит/с, 48kHz, 16 bit - двуголосый закадровый
Аудио 3: Английский: DTS, 5.1, 1536 Кбит/с, 48 kHz, 24 bit
Формат субтитров: softsub (SRT)
Сохранены оригинальные чаптеры как на Blu-Ray

MediaInfo

General
Unique ID : 228775841461875119587513923239691372560 (0xAC1C9FD63688352FA747C157514B4810)
Complete name : G:\Admission.2013.1080p.BluRay.2xRus.Eng.Subs.mkv
Format : Matroska
Format version : Version 2
File size : 11.3 GiB
Duration : 1h 47mn
Overall bit rate : 15.1 Mbps
Movie name : Admission (2013)
Encoded date : UTC 2013-08-03 17:57:38
Writing application : mkvmerge v4.0.0 ('The Stars were mine') сборка от Jun 6 2010 16:18:42
Writing library : libebml v1.0.0 + libmatroska v1.0.0
Video
ID : 1
Format : AVC
Format/Info : Advanced Video Codec
Format profile : High@L4.1
Format settings, CABAC : Yes
Format settings, ReFrames : 5 frames
Codec ID : V_MPEG4/ISO/AVC
Duration : 1h 47mn
Bit rate : 11.4 Mbps
Width : 1 920 pixels
Height : 800 pixels
Display aspect ratio : 2.40:1
Frame rate mode : Constant
Frame rate : 23.976 fps
Color space : YUV
Chroma subsampling : 4:2:0
Bit depth : 8 bits
Scan type : Progressive
Bits/(Pixel*Frame) : 0.310
Stream size : 8.53 GiB (75%)
Title : Admission.2013.AVC.BDRip.(1080p).PriMeHD
Writing library : x264 core 133 r2334kMod a3ac64b
Encoding settings : cabac=1 / ref=5 / deblock=1:-2:-2 / analyse=0x3:0x113 / me=umh / subme=10 / psy=1 / fade_compensate=0.00 / psy_rd=1.00:0.10 / mixed_ref=1 / me_range=48 / chroma_me=1 / trellis=2 / 8x8dct=1 / cqm=0 / deadzone=21,11 / fast_pskip=1 / chroma_qp_offset=-2 / threads=12 / lookahead_threads=2 / sliced_threads=0 / nr=0 / decimate=1 / interlaced=0 / bluray_compat=0 / constrained_intra=0 / bframes=8 / b_pyramid=2 / b_adapt=2 / b_bias=0 / direct=1 / weightb=1 / open_gop=0 / weightp=2 / keyint=240 / keyint_min=23 / scenecut=40 / intra_refresh=0 / rc_lookahead=200 / rc=crf / mbtree=1 / crf=18.0000 / qcomp=0.70 / qpmin=0 / qpmax=69 / qpstep=4 / vbv_maxrate=62500 / vbv_bufsize=78125 / crf_max=0.0 / nal_hrd=none / ip_ratio=1.40 / aq=1:0.90
Language : English
Default : Yes
Forced : Yes
Audio #1
ID : 2
Format : DTS
Format/Info : Digital Theater Systems
Mode : 16
Format settings, Endianness : Big
Codec ID : A_DTS
Duration : 1h 47mn
Bit rate mode : Constant
Bit rate : 1 510 Kbps
Channel(s) : 6 channels
Channel positions : Front: L C R, Side: L R, LFE
Sampling rate : 48.0 KHz
Bit depth : 24 bits
Compression mode : Lossy
Stream size : 1.13 GiB (10%)
Title : DTS 5.1 @ 1510 kbps - Dub, R5
Language : Russian
Default : Yes
Forced : Yes
Audio #2
ID : 3
Format : AC-3
Format/Info : Audio Coding 3
Mode extension : CM (complete main)
Format settings, Endianness : Big
Codec ID : A_AC3
Duration : 1h 47mn
Bit rate mode : Constant
Bit rate : 384 Kbps
Channel(s) : 6 channels
Channel positions : Front: L C R, Side: L R, LFE
Sampling rate : 48.0 KHz
Bit depth : 16 bits
Compression mode : Lossy
Stream size : 294 MiB (3%)
Title : AC3 5.1 @ 384 kbps - L2
Language : Russian
Default : No
Forced : No
Audio #3
ID : 4
Format : DTS
Format/Info : Digital Theater Systems
Mode : 16
Format settings, Endianness : Big
Codec ID : A_DTS
Duration : 1h 47mn
Bit rate mode : Constant
Bit rate : 1 509 Kbps
Channel(s) : 6 channels
Channel positions : Front: L C R, Side: L R, LFE
Sampling rate : 48.0 KHz
Bit depth : 24 bits
Compression mode : Lossy
Delay relative to video : 11ms
Stream size : 1.13 GiB (10%)
Title : DTS 5.1 @ 1510 kbps - Original
Language : English
Default : No
Forced : No
Text #1
ID : 5
Format : UTF-8
Codec ID : S_TEXT/UTF8
Codec ID/Info : UTF-8 Plain Text
Title : notabenoid
Language : Russian
Default : No
Forced : No
Text #2
ID : 6
Format : UTF-8
Codec ID : S_TEXT/UTF8
Codec ID/Info : UTF-8 Plain Text
Language : English
Default : No
Forced : No
Menu
00:00:00.000 : en:Chapter 1
00:06:25.635 : en:Chapter 2
00:10:23.164 : en:Chapter 3
00:16:40.124 : en:Chapter 4
00:20:07.665 : en:Chapter 5
00:25:02.251 : en:Chapter 6
00:29:10.958 : en:Chapter 7
00:35:35.425 : en:Chapter 8
00:40:15.622 : en:Chapter 9
00:46:49.724 : en:Chapter 10
00:50:58.514 : en:Chapter 11
00:55:45.634 : en:Chapter 12
00:58:55.824 : en:Chapter 13
01:05:51.322 : en:Chapter 14
01:09:30.625 : en:Chapter 15
01:13:32.700 : en:Chapter 16
01:19:58.544 : en:Chapter 17
01:27:01.091 : en:Chapter 18
01:35:40.985 : en:Chapter 19
01:40:42.328 : en:Chapter 20

Скриншоты

Скачать

Скачать торрент!

Как скачивать? · Что такое торрент? · Рейтинг и ограничения

Сайт не распространяет и не хранит электронные версии произведений, а лишь предоставляет доступ к создаваемому пользователями каталогу ссылок на торрент-файлы, которые содержат только списки хеш-сумм

[Профиль] [ЛС]
Показать сообщения:    
Ответить на тему

Текущее время: Сегодня 08:04

Часовой пояс: GMT + 4



Вы не можете начинать темы
Вы не можете отвечать на сообщения
Вы не можете редактировать свои сообщения
Вы не можете удалять свои сообщения
Вы не можете голосовать в опросах
Вы не можете прикреплять файлы к сообщениям
Вы не можете скачивать файлы