В поисках мистера Совершенство / Finding Mr. Right / Beijing yu shang Xiyatu (Сюэ Сяолу / Xue Xiaolu) [2013, Китай, романтическая комедия, DVDRip] Sub rus

Ответить на тему
 
Автор Сообщение

user ®

Стаж: 13 лет

Сообщений: 15071

Пост Пост: #1 от 05-Авг-2013 23:00

[Цитировать]

В поисках мистера Совершенство / Finding Mr. Right / Beijing yu shang Xiyatu
Страна: Китай
Жанр: романтическая комедия
Год выпуска: 2013
Продолжительность: 02:02:40
Перевод: Субтитры
Доп.инфо о переводе: Перевод – julz_nsk
Cубтитры: русские, отключаемые, srt
Оригинальная аудиодорожка: китайский, английский
Режиссер: Сюэ Сяолу / Xue Xiaolu
В ролях: Tang Wei / Тан Вэй в роли Вэнь Цзяцзя
Wu Xiubo / У Сюбо в роли Фрэнка
Hai Qing / Хай Цин в роли Чжоу
Elaine Kam/ Элейн Кам в роли Хуан Мэри
Theresa Lee / Тереза Ли в роли доктора Тан
Liu Yiwei / Лю Ивэй голос Чжуна
Описание: Вэнь Цзяцзя, беременная любовница китайского бизнесмена, прилетает из Пекина в Сиэтл, чтобы незаконно родить ребенка в Америке.
Она швыряется деньгами, заносчиво ведет себя с окружающими и пытается быть независимой.
Когда отец ее ребенка не смог приехать в США, единственным другом становится водитель родильного дома, Фрэнк.

IMDB: 5.8/10 (659 votes)
http://multi-up.com/891108
Качество видео: DVDRip
Формат видео: AVI
Видео кодек: XviD
Аудио кодек: AC-3
Видео: 720х304 (2.35:1), MPEG-4, 23.976 fps, ~ 1 318 kbps avg, 0.251 bit/pixel
Аудио: 48 kHz, AC3 Dolby Digital, 6 ch, ~ 384 kbps (Mandarin, English)
Формат субтитров: softsub (SRT)

MediaInfo

General
Complete name : H:\Finding Mr.Right\Finding Mr. Right.avi
Format : AVI
Format/Info : Audio Video Interleave
File size : 1.47 GiB
Duration : 2h 2mn
Overall bit rate : 1 711 Kbps
Writing application : VirtualDubMod 1.5.10.3 | www.virtualdub-fr.org || (build 2550/release)
Writing library : VirtualDubMod build 2550/release
Video #0
ID : 0
Format : MPEG-4 Visual
Format profile : AdvancedSimple@L5
Format settings, BVOP : Yes
Format settings, QPel : No
Format settings, GMC : No warppoints
Format settings, Matrix : Default (MPEG)
Codec ID : XVID
Codec ID/Hint : XviD
Duration : 2h 2mn
Bit rate : 1 318 Kbps
Width : 720 pixels
Height : 304 pixels
Display aspect ratio : 2.35:1
Frame rate : 23.976 fps
Resolution : 24 bits
Colorimetry : 4:2:0
Scan type : Progressive
Bits/(Pixel*Frame) : 0.251
Stream size : 1.13 GiB (77%)
Writing library : XviD 1.2.1 (UTC 2008-12-04)
Audio #1
ID : 1
Format : AC-3
Format/Info : Audio Coding 3
Codec ID : 2000
Duration : 2h 2mn
Bit rate mode : Constant
Bit rate : 384 Kbps
Channel(s) : 6 channels
Channel positions : Front: L C R, Surround: L R, LFE
Sampling rate : 48.0 KHz
Stream size : 337 MiB (22%)
Alignment : Split accross interleaves
Interleave, duration : 42 ms (1.00 video frame)
Interleave, preload duration : 500 ms

Скриншот с названием фильма

Скриншоты


Субтитры

1
00:01:36,635 --> 00:01:42,635
В ПОИСКАХ МИСТЕРА СОВЕРШЕНСТВО
2
00:02:53,754 --> 00:02:54,939
Паспорт.
3
00:02:56,084 --> 00:02:57,251
Паспорт.
4
00:02:57,334 --> 00:02:59,459
Пожалуйста, пройдите туда.
5
00:03:00,584 --> 00:03:02,601
Нет, туда.
6
00:03:09,667 --> 00:03:10,976
Разрешите задержаться на неделю.
7
00:03:11,084 --> 00:03:13,917
Я очень много работал, чтобы
получить две недели отпуска.
8
00:03:14,084 --> 00:03:16,001
Я впервые приехал в США.
9
00:03:16,084 --> 00:03:17,792
Две недели!
10
00:03:17,834 --> 00:03:19,417
- Следующий!
- Вы понимаете, что я говорю?
11
00:03:19,501 --> 00:03:20,609
Следующий.
12
00:03:22,876 --> 00:03:23,376
Здравствуйте.
13
00:03:23,417 --> 00:03:26,467
Добрый вечер.
Какова цель вашего приезда?
14
00:03:28,001 --> 00:03:29,809
Зачем вы приехали в США?
15
00:03:32,376 --> 00:03:33,601
Туризм.
16
00:03:33,751 --> 00:03:35,551
Вы одна?
17
00:03:37,001 --> 00:03:38,601
Вы приехали одна?
18
00:03:38,667 --> 00:03:39,992
Одна?
19
00:03:41,001 --> 00:03:44,126
I am single lady,
I am single lady...
20
00:03:44,209 --> 00:03:45,376
Достаточно.
21
00:03:46,792 --> 00:03:49,501
У нас на праздники люди обычно
едут в Лос-Анджелес и Нью-Йорк.
22
00:03:49,584 --> 00:03:52,276
Почему вы выбрали Сиэтл?
23
00:03:52,667 --> 00:03:55,509
Повторите,
пожалуйста, еще раз.
24
00:03:55,751 --> 00:03:58,776
Я спрашиваю,
почему вы приехали в Сиэтл.
25
00:03:58,876 --> 00:04:01,501
Кино. Кино.
26
00:04:01,584 --> 00:04:04,917
"Неспящие в Сиэтле".
27
00:04:05,001 --> 00:04:08,376
Знаете, как я люблю
этот фильм? Очень люблю.
28
00:04:08,459 --> 00:04:10,434
Смотрите в объектив.
29
00:04:10,584 --> 00:04:12,092
Не улыбайтесь.
30
00:04:16,667 --> 00:04:18,001
Романтическая история любви.
Скачать

Скачать торрент! В поисках мистера Совершенство / Finding Mr. Right / Beijing yu shang Xiyatu (Сюэ Сяолу / Xue Xiaolu) [2013, Китай, романтическая комедия, DVDRip] Sub rus

Как скачивать? · Что такое торрент? · Рейтинг и ограничения

Сайт не распространяет и не хранит электронные версии произведений, а лишь предоставляет доступ к создаваемому пользователями каталогу ссылок на торрент-файлы, которые содержат только списки хеш-сумм

[Профиль] [ЛС]
Показать сообщения:    
Ответить на тему

Текущее время: Сегодня 16:33

Часовой пояс: GMT + 4



Вы не можете начинать темы
Вы не можете отвечать на сообщения
Вы не можете редактировать свои сообщения
Вы не можете удалять свои сообщения
Вы не можете голосовать в опросах
Вы не можете прикреплять файлы к сообщениям
Вы не можете скачивать файлы