Седьмое лето Сюмбель (Булат Юсупов) [2002, Драма, WEB-DL, AVC]

Ответить на тему
 
Автор Сообщение

user ®

Стаж: 7 лет 7 месяцев

Сообщений: 20008

Пост Пост: #1 от 05-Авг-2013 23:00

[Цитировать]

Седьмое лето Сюмбель
Жанр: Драма
Год выпуска: 2002
Продолжительность: 01:14:46
Режиссёр: Булат Юсупов
В ролях: Расуль Карабулатов, Рушана Бабич, Камилла Биккулова-Кусимова
Описание: «Седьмое лето Сюмбель» — российский кинофильм 2002 года.В фильме рассказывается о судьбе семьи лейтенанта НКВД, попавшей в жернова сталинской репрессивной машины и вынужденной спасаться бегством в отдаленном уголке Башкирии.
Доп. информация: Награды и участие в фестивалях:
2002 г — 11 Международный фестиваль стран Балтии и СНГ. Внеконкурсный показ фильм «Седьмое лето Сюмбель»
2002 г. — 8 Международный правозащитный фестиваль «Сталкер» — приз гильдии киноведов и кинокритиков за фильм «Седьмое лето Сюмбель»,
2003 г. — 24 Московском Международном Кинофестивале — в спец. программе «Кино регионов России», показ фильма «Седьмое лето Сюмбель»
2004 г. — Кинофестиваль «Встречи в Сибири» показ фильма «Седьмое лето Сюмбель»
2004 г. — Кинофестиваль «Kун десегей» Якутск, приз за лучший фильм «Седьмое лето Сюмбель»
Качество видео: WEB-DL
Формат видео: FLV
Видео: 320x240, Flash Video, 25 fps, 350 Kbps
Аудио: MP3, 89.3 Kbps, 22.05 KHz

MediaInfo

General
Complete name : C:\Users\aananyev\Desktop\bdbf88896c5f54c81cad.flv
Format : Flash Video
File size : 187 MiB
Duration : 1h 14mn
Overall bit rate mode : Variable
Overall bit rate : 350 Kbps
Writing application : В Кадре.ру
Tagging application : Yet Another Metadata Injector for FLV - Version 1.2-OA-modified
title : Седьмое лето Сюмбель
author : Марат Булатов
created_at : 24 February 2009
Video
Format : Sorenson Spark
Codec ID : 2
Duration : 1h 14mn
Bit rate : 245 Kbps
Width : 320 pixels
Height : 240 pixels
Display aspect ratio : 4:3
Frame rate mode : Constant
Frame rate : 25.000 fps
Bit depth : 8 bits
Bits/(Pixel*Frame) : 0.128
Stream size : 135 MiB (72%)
Audio
Format : MPEG Audio
Format version : Version 2
Format profile : Layer 3
Mode : Joint stereo
Mode extension : MS Stereo
Codec ID : 2
Codec ID/Hint : MP3
Duration : 1h 14mn
Bit rate mode : Variable
Bit rate : 89.3 Kbps
Channel(s) : 2 channels
Sampling rate : 22.05 KHz
Compression mode : Lossy
Stream size : 50.7 MiB (27%)

Скриншот c названием фильма

Скриншоты

Скачать

Скачать торрент!

Как скачивать? · Что такое торрент? · Рейтинг и ограничения

Сайт не распространяет и не хранит электронные версии произведений, а лишь предоставляет доступ к создаваемому пользователями каталогу ссылок на торрент-файлы, которые содержат только списки хеш-сумм

[Профиль] [ЛС]
Показать сообщения:    
Ответить на тему

Текущее время: Сегодня 14:29

Часовой пояс: GMT + 4



Вы не можете начинать темы
Вы не можете отвечать на сообщения
Вы не можете редактировать свои сообщения
Вы не можете удалять свои сообщения
Вы не можете голосовать в опросах
Вы не можете прикреплять файлы к сообщениям
Вы не можете скачивать файлы