Путь откровения: Начало конца / Revelation Road: The Beginning of the End (Гэбриел Саблофф / Gabriel Sabloff) [2013, США, Боевик, HDRip] DVO + Original Eng

Ответить на тему
 
Автор Сообщение

user ®

Стаж: 7 лет 7 месяцев

Сообщений: 20008

Пост Пост: #1 от 05-Авг-2013 23:00

[Цитировать]

Путь откровения: Начало конца / Revelation Road: The Beginning of the End
Страна: США
Жанр: Боевик
Год выпуска: 2013
Продолжительность: 01:28:00
Перевод: Любительский (двухголосый закадровый)
Cубтитры: нет
Оригинальная аудиодорожка: английский
Режиссер: Гэбриел Саблофф / Gabriel Sabloff
В ролях: Дэвид А.Р. Уайт, Брайан Босворт, Эрик Робертс, Логан Уайт, Стив Борден, Ноэлль Коэт, Джен Лиллей, Элайза Робертс, Брюс Марчиано, Сара Прикрил
Описание: Джош, путешествующий бизнесмен с облачным прошлым, о котором никто ничего не знает, кроме его самого. И его досье есть только за последние 5 лет. Прошлое очищено. Джош оказывается в пыльном Западном городе Техаса не в то время и помешал грабежу, совершённому бандой байкеров. Единственная цель Джоша состоит в том, чтобы быстрее возвратиться домой к своей семье живым…
трейлер ко второй части Revelation Road 2: The Sea of Glass and Fire http://www.youtube.com/watch?v=k2WHpslajK0
Кинопоиск http://www.kinopoisk.ru/film/709080/
IMDB http://www.imdb.com/title/tt2412746/
Сэмпл: http://multi-up.com/890919
Исходник: Неизвестен
Качество видео: HDRip
Формат видео: AVI
Видео: DivX 5, 720x400, 16:9,29.97fps ,1899kbps
Аудио: MP3 ,44100Hz ,stereo ,128kbps
Аудио 2: MP3 48000Hz stereo 160kbps

MediaInfo

General
Complete name : E:\Kino\Revelation.Road.The.Beginning.Of.The.End.2013.BDRip.avi
Format : AVI
Format/Info : Audio Video Interleave
Format profile : OpenDML
File size : 1.37 GiB
Duration : 1h 28mn
Overall bit rate : 2 211 Kbps
Writing application : Lavf55.11.101
Video
ID : 0
Format : MPEG-4 Visual
Format profile : Advanced Simple@L5
Format settings, BVOP : 1
Format settings, QPel : No
Format settings, GMC : No warppoints
Format settings, Matrix : Default (H.263)
Muxing mode : Packed bitstream
Codec ID : DX50
Codec ID/Hint : DivX 5
Duration : 1h 28mn
Bit rate : 1 899 Kbps
Width : 720 pixels
Height : 400 pixels
Display aspect ratio : 16:9
Frame rate : 29.970 fps
Color space : YUV
Chroma subsampling : 4:2:0
Bit depth : 8 bits
Scan type : Progressive
Compression mode : Lossy
Bits/(Pixel*Frame) : 0.220
Stream size : 1.17 GiB (86%)
Writing library : XviD 1.2.1 (UTC 2008-12-04)
Audio #1
ID : 1
Format : MPEG Audio
Format version : Version 1
Format profile : Layer 3
Mode : Joint stereo
Mode extension : MS Stereo
Codec ID : 55
Codec ID/Hint : MP3
Duration : 1h 28mn
Bit rate mode : Constant
Bit rate : 128 Kbps
Channel(s) : 2 channels
Sampling rate : 44.1 KHz
Compression mode : Lossy
Stream size : 81.0 MiB (6%)
Alignment : Aligned on interleaves
Interleave, duration : 26 ms (0.78 video frame)
Interleave, preload duration : 26 ms
Writing library : LAME3.97
Audio #2
ID : 2
Format : MPEG Audio
Format version : Version 1
Format profile : Layer 3
Codec ID : 55
Codec ID/Hint : MP3
Duration : 1h 28mn
Bit rate mode : Constant
Bit rate : 160 Kbps
Channel(s) : 2 channels
Sampling rate : 48.0 KHz
Compression mode : Lossy
Stream size : 101 MiB (7%)
Alignment : Aligned on interleaves
Interleave, duration : 24 ms (0.72 video frame)
Interleave, preload duration : 24 ms

Скриншот c названием фильма

Скриншоты

Скачать

Скачать торрент!

Как скачивать? · Что такое торрент? · Рейтинг и ограничения

Сайт не распространяет и не хранит электронные версии произведений, а лишь предоставляет доступ к создаваемому пользователями каталогу ссылок на торрент-файлы, которые содержат только списки хеш-сумм

[Профиль] [ЛС]
Показать сообщения:    
Ответить на тему

Текущее время: Сегодня 12:37

Часовой пояс: GMT + 4



Вы не можете начинать темы
Вы не можете отвечать на сообщения
Вы не можете редактировать свои сообщения
Вы не можете удалять свои сообщения
Вы не можете голосовать в опросах
Вы не можете прикреплять файлы к сообщениям
Вы не можете скачивать файлы