Обливион / Oblivion (Джозеф Косински / Joseph Kosinski) [2013, США, фантастика, боевик, триллер, BDRip 1080p] Dub + Sub Rus, Eng + Original Eng

Ответить на тему
 
Автор Сообщение

user ®

Стаж: 7 лет 7 месяцев

Сообщений: 20008

Пост Пост: #1 от 05-Авг-2013 17:05

[Цитировать]

-Обливион / Oblivion-Страна: США
Студия: Universal Pictures
Жанр: фантастика, боевик, триллер
Год выпуска: 2013
Продолжительность: 02:04:42-Перевод: Профессиональный (дублированный)
Cубтитры: русские , английские
Оригинальная аудиодорожка: английский-Режиссер: Джозеф Косински / Joseph Kosinski
В ролях: Том Круз, Ольга Куриленко, Андреа Райзборо, Морган Фриман, Николай Костер-Вальдау, Мелисса Лео, Зои Белл, Эбигейл Лоу, Изабель Лоу, Дэвид Мэдисон-Описание: Земля, пережившая войну с инопланетными захватчиками, опустела; остатки человечества готовятся покинуть непригодную для жизни планету. Главный герой — техник по обслуживанию дронов — находит разбившийся корабль NASA, команда которого погибает у него на глазах. Ему удаётся спасти лишь одну женщину — и вскоре он понимает, что это перевернёт его жизнь.-Сэмпл: http://yadi.sk/d/vZxiGi5v7YwrE-Тип релиза: BDRip 1080p
Контейнер: MKV
Видео: MPEG-4 AVC Video 15900 kbps 1080p / 23,976 fps / 16:9 / High Profile 4.1
Аудио: DTS Audio Russian 5.1 / 48 kHz / 768 kbps / 24-bit
Аудио: DTS Audio English 5.1 / 48 kHz / 1509 kbps / 24-bit
Формат субтитров: softsub (SRT)

Видеоряд от EbP

.______________. __________\_ _____/\_ |__\______ \ | __)_ | __ \| ___/ | \ | \_\ \ |/_______ / |___ /____| \/ \/
movie infoGENRE.........: Action | Adventure | Sci-FiIMDB RATING...: 7.1/10 from 94,861 usersLINK..........: http://www.imdb.com/title/tt1483013/
RELEASE NAME..: Oblivion.2013.1080p.BluRay.DTS.x264-EbPRELEASE DATE..: 07/26/2013RELEASE SIZE..: 15.5 GBRUNTIME.......: 2:04:42VIDEO CODEC...: x264, CRF, L4.1FRAMERATE.....: 23.976 fpsBITRATE.......: 15.9 bpsRESOLUTION....: 1920x804AUDIO 1.......: English DTS 5.1 @ 1509 KbpsAUDIO 2.......: Commentary with Tom Cruise and director Joseph Kosinski AAC2.0 (q=0.25)SUBTITLES.....: English .srtCHAPTER.......: IncludedSOURCE........: Oblivion 2013 1080p Blu-ray AVC DTS-HD MA 7.1-HDWinG
-
-Source | EbP




MI

General
Complete name                    : X:\  -= Фильмы =-\Обливион (2013. Oblivion).mkv
Format                           : Matroska
File size                        : 16.1 GiB
Duration                         : 2h 4mn
Overall bit rate                 : 18.5 Mbps
Movie name                       : Release for RuTracker
Encoded date                     : UTC 2013-08-04 14:45:22
Writing application              : mkvmerge v4.9.1 ('Ich will') сборка от Jul 11 2011 23:53:15
Writing library                  : libebml v1.2.1 + libmatroska v1.1.1
Video
ID                               : 1
Format                           : AVC
Format/Info                      : Advanced Video Codec
Format profile                   : High@L4.1
Format settings, CABAC           : Yes
Format settings, ReFrames        : 5 frames
Muxing mode                      : Container profile=Unknown@4.1
Codec ID                         : V_MPEG4/ISO/AVC
Duration                         : 2h 4mn
Bit rate                         : 15.9 Mbps
Width                            : 1 920 pixels
Height                           : 804 pixels
Display aspect ratio             : 2.35:1
Frame rate                       : 23.976 fps
Color space                      : YUV
Chroma subsampling               : 4:2:0
Bit depth                        : 8 bits
Scan type                        : Progressive
Bits/(Pixel*Frame)               : 0.430
Stream size                      : 13.9 GiB (86%)
Writing library                  : x264 core 135 r2345 f0c1c53
Encoding settings                : cabac=1 / ref=5 / deblock=1:-3:-3 / analyse=0x3:0x113 / me=tesa / subme=10 / psy=1 / psy_rd=0.90:0.00 / mixed_ref=1 / me_range=16 / chroma_me=1 / trellis=2 / 8x8dct=1 / cqm=0 / deadzone=21,11 / fast_pskip=0 / chroma_qp_offset=-2 / threads=12 / lookahead_threads=2 / sliced_threads=0 / nr=0 / decimate=0 / interlaced=0 / bluray_compat=0 / constrained_intra=0 / bframes=7 / b_pyramid=2 / b_adapt=2 / b_bias=0 / direct=3 / weightb=1 / open_gop=0 / weightp=2 / keyint=250 / keyint_min=23 / scenecut=40 / intra_refresh=0 / rc=crf / mbtree=0 / crf=16.0 / qcomp=0.60 / qpmin=0 / qpmax=69 / qpstep=4 / ip_ratio=1.30 / pb_ratio=1.30 / aq=1:0.90
Language                         : English
Audio #1
ID                               : 2
Format                           : DTS
Format/Info                      : Digital Theater Systems
Codec ID                         : A_DTS
Duration                         : 2h 4mn
Bit rate mode                    : Constant
Bit rate                         : 755 Kbps
Channel(s)                       : 6 channels
Channel positions                : Front: L C R, Side: L R, LFE
Sampling rate                    : 48.0 KHz
Bit depth                        : 24 bits
Stream size                      : 673 MiB (4%)
Title                            : Дубляж
Language                         : Russian
Audio #2
ID                               : 3
Format                           : DTS
Format/Info                      : Digital Theater Systems
Codec ID                         : A_DTS
Duration                         : 2h 4mn
Bit rate mode                    : Constant
Bit rate                         : 1 510 Kbps
Channel(s)                       : 6 channels
Channel positions                : Front: L C R, Side: L R, LFE
Sampling rate                    : 48.0 KHz
Bit depth                        : 24 bits
Stream size                      : 1.32 GiB (8%)
Language                         : English
Text #1
ID                               : 4
Format                           : UTF-8
Codec ID                         : S_TEXT/UTF8
Codec ID/Info                    : UTF-8 Plain Text
Title                            : forced
Language                         : Russian
Text #2
ID                               : 5
Format                           : UTF-8
Codec ID                         : S_TEXT/UTF8
Codec ID/Info                    : UTF-8 Plain Text
Title                            : full
Language                         : Russian
Text #3
ID                               : 6
Format                           : UTF-8
Codec ID                         : S_TEXT/UTF8
Codec ID/Info                    : UTF-8 Plain Text
Language                         : English
Menu
00:00:00.000                     : en:00:00:00.000
00:04:31.354                     : en:00:04:31.354
00:12:51.813                     : en:00:12:51.813
00:21:25.284                     : en:00:21:25.284
00:27:20.138                     : en:00:27:20.138
00:35:30.337                     : en:00:35:30.337
00:40:06.779                     : en:00:40:06.779
00:46:16.023                     : en:00:46:16.023
00:52:22.181                     : en:00:52:22.181
01:01:59.716                     : en:01:01:59.716
01:07:59.409                     : en:01:07:59.409
01:16:25.831                     : en:01:16:25.831
01:22:08.173                     : en:01:22:08.173
01:25:31.752                     : en:01:25:31.752
01:30:22.542                     : en:01:30:22.542
01:36:30.368                     : en:01:36:30.368
01:40:29.106                     : en:01:40:29.106
01:46:27.423                     : en:01:46:27.423
01:53:05.320                     : en:01:53:05.320
01:58:23.847                     : en:01:58:23.847

Скриншоты


Скачать

Скачать торрент!

Как скачивать? · Что такое торрент? · Рейтинг и ограничения

Сайт не распространяет и не хранит электронные версии произведений, а лишь предоставляет доступ к создаваемому пользователями каталогу ссылок на торрент-файлы, которые содержат только списки хеш-сумм

[Профиль] [ЛС]
Показать сообщения:    
Ответить на тему

Текущее время: Сегодня 13:51

Часовой пояс: GMT + 4



Вы не можете начинать темы
Вы не можете отвечать на сообщения
Вы не можете редактировать свои сообщения
Вы не можете удалять свои сообщения
Вы не можете голосовать в опросах
Вы не можете прикреплять файлы к сообщениям
Вы не можете скачивать файлы